Your Ad Here
[ New messages · Members · Forum rules · Search · RSS ]
Page 1 of 11
Forum » TORRENT MOVIES » 720p - 1080p HIndi Dubbed » Tarzan 1999 720p HDTV Rip[Dual-Audio][Eng-Hindi]~BONIIN (Tarzan 1999 720p HDTV Rip[Dual-Audio][Eng-Hindi]~BONIIN)
Tarzan 1999 720p HDTV Rip[Dual-Audio][Eng-Hindi]~BONIIN
boniinDate: Tuesday, 2010-11-23, 12:44 PM | Message # 1
Lieutenant colonel
Group: Administrators
Messages: 116
Awards: 5
Reputation: 10
Status: Offline



Release Title: Tarzan 1999 720p HDTVRip[Dual-Audio][Eng-Hindi]~BONIIN
Release Date: 18 June 1999 (USA)
Release Length: 1h 22mn

Tagline: An immortal legend. As you've only imagined.

Storyline:The movie is about the life of Tarzan. Tarzan was a small orphan who was raised by an ape
named Kala since he was a child. He believed that this was his family, but on an expedition Jane Porter
is rescued by Tarzan. He then finds out that he's human. Now Tarzan must make the decision as to which
family he should belong

Tony Goldwyn ... Tarzan (voice)

Minnie Driver ... Jane Porter (voice)

Glenn Close ... Kala (voice)

Brian Blessed ... Mr. Clayton, the Gorilla Hunter (voice)

Nigel Hawthorne ... Professor Archimedes Q. Porter (voice)

Lance Henriksen ... Kerchak, the Gorilla King (voice)

Wayne Knight ... Adult Tantor (voice)

Alex D. Linz ... Young Tarzan (voice)

Rosie O'Donnell ... Young Terk / Adult Terk (voice)

Taylor Dempsey ... Young Tantor (voice)

Jason Marsden ... Additional Voices (voice

Beth Anderson ... Additional Voices (voice)

Jack Angel ... Additional Voices (voice)

Joseph Ashton ... Ape Boy (voice)

Bob Bergen ... Additional Voices (voice

Title............................: Tarzan 1999 720p HDTVHDTVRip[Dual-Audio][Eng-Hindi]~BONIIN
Genre............................: Action | Animation | Adventure | Drama | Family
Directer.........................: Chris Buck, Kevin Lima
Writer...........................: Edgar Rice Burroughs (story), Tab Murphy
IMDB.............................: http://www.imdb.com/title/tt0120855/
year.............................: 18 June 1999 (USA)
User Rating......................: 7.0/10 (27,378 votes)
VIDEO Source.....................: Tarzan 1999 1080p HDTVHDTVRip x264-abc
File size........................: 2.32 GiB
Run time.........................: 1h 22mn
Languages........................: English.Hindi
Subtittle........................: English
Ripper...........................: BONIIN[BOW]

Video
ID : 2
Format : AVC-Mkv
Format/Info : H264-Advanced Video Codec
Format profile : High@L5.1
Format settings, CABAC : Yes
Format settings, ReFrames : 8 frames
Muxing mode : Container profile=Unknown@5.1
Codec ID : V_MPEG4/ISO/AVC
Duration : 1h 22mn
Bit rate : 3 346 Kbps
Nominal bit rate : 3 428 Kbps
Overall bit rate : 4 035 Kbps
Width : 1 280 pixels
Height : 720 pixels
Display aspect ratio : 16:9
Frame rate : 23.976 fps
Resolution : 8 bits
Colorimetry : 4:2:0
Scan type : Progressive
Bits/(Pixel*Frame) : 0.151
Stream size : 1.92 GiB (83%)
Title : RIPPER-BONIIN
Writing library : x264 core 57 svn-709C
Encoding settings : cabac=1 / ref=5 / deblock=1:0:0
Language : English
Encoded date : UTC 2010-11-18 14:29:02
Writing application : mkvmerge v3.3.0 ('Language') built on Mar 24 2010 14:59:24
Writing library : libebml v0.8.0 + libmatroska v0.9.0

Audio #1
ID : 1
Format : AC-3
Format/Info : Audio Coding 3
Codec ID : A_AC3
Duration : 1h 22mn
Bit rate mode : Constant
Bit rate : 384 Kbps
Channel(s) : 6 channels
Channel positions : Front: L C R, Side: L R, LFE
Sampling rate : 48.0 KHz
Stream size : 226 MiB (10%)
Title : RIPPER-BONIIN
Language : English

Audio #2
ID : 3
Format : AC-3
Format/Info : Audio Coding 3
Codec ID : A_AC3
Duration : 1h 22mn
Bit rate mode : Constant
Bit rate : 224 Kbps
Channel(s) : 2 channels
Channel positions : Front: L R
Sampling rate : 48.0 KHz
Video delay : 10ms
Stream size : 132 MiB (6%)
Title : RIPPER-BONIIN
Language : Hindi

















Download Torrent File Here

[url="http://kickasstorrents.com/tarzan-1999-720p-hdtv-rip-dual-audio-eng-hindi-boniin-t4711075.html"][/url]

 
Forum » TORRENT MOVIES » 720p - 1080p HIndi Dubbed » Tarzan 1999 720p HDTV Rip[Dual-Audio][Eng-Hindi]~BONIIN (Tarzan 1999 720p HDTV Rip[Dual-Audio][Eng-Hindi]~BONIIN)
Page 1 of 11
Search:

Manage Attachments - BindassDesi - The Open Internet Forums
Close this window Manage Attachments
Upload File from your Computer


Upload File from a URL

image Attachment Key
Filetype Max Filesize Max Width Max Height
image torrent 976.6 KB - -