Blood Diamond [2006] 720P BRRip [Dual-Audio] [English+Hindi] - Forum
Your Ad Here
[ New messages · Members · Forum rules · Search · RSS ]
Page 1 of 11
Forum » TORRENT MOVIES » 720p - 1080p HIndi Dubbed » Blood Diamond [2006] 720P BRRip [Dual-Audio] [English+Hindi] (Blood Diamond [2006] 720P BRRip [Dual-Audio] [English+Hindi)
Blood Diamond [2006] 720P BRRip [Dual-Audio] [English+Hindi]
djvikasDate: Sunday, 2010-12-26, 11:44 AM | Message # 1
Lieutenant
Group: Administrators
Messages: 45
Awards: 2
Reputation: 1
Status: Offline
General
Complete name : Blood Diamond [2006] 720P BRRip [Dual-Audio]
Genre : Adventure | Drama
IMDB Rating : 8.0/10 92,790 votes
Format : Matroska
File size : 2.00 GiB
Duration : 2h 23mn
Overall bit rate : 1 997 Kbps
Encoded date : UTC 2010-11-14 19:35:16
Writing application : mkvmerge v4.4.0 ('Die Wiederkehr') built on Oct 31 2010 21:52:48
Writing library : libebml v1.0.0 + libmatroska v1.0.0

Video
ID : 1
Format : AVC
Format/Info : Advanced Video Codec
Format profile : High@L4.1
Format settings, CABAC : Yes
Format settings, ReFrames : 3 frames
Muxing mode : Header stripping
Codec ID : V_MPEG4/ISO/AVC
Duration : 2h 23mn
Bit rate : 1 725 Kbps
Width : 1 280 pixels
Height : 528 pixels
Display aspect ratio : 2.40:1
Frame rate : 23.976 fps
Color space : YUV
Chroma subsampling : 4:2:0
Bit depth : 8 bits
Scan type : Progressive
Bits/(Pixel*Frame) : 0.106
Stream size : 1.69 GiB (84%)
Title : Blood Diamond
Writing library : x264 core 67 r1159 3da3f95
Language : English

Audio #1
ID : 2
Format : MPEG Audio
Format version : Version 1
Format profile : Layer 3
Mode : Joint stereo
Mode extension : MS Stereo
Muxing mode : Header stripping
Codec ID : A_MPEG/L3
Codec ID/Hint : MP3
Duration : 2h 23mn
Bit rate mode : Variable
Bit rate : 98.4 Kbps
Minimum bit rate : 32.0 Kbps
Channel(s) : 2 channels
Sampling rate : 48.0 KHz
Stream size : 101 MiB (5%)
Title : Blood Diamond - English
Writing library : LAME3.98r
Encoding settings : -m j -V 6 -q 3 -lowpass 15.6 --vbr-old -b 32
Language : English

Audio #2
ID : 3
Format : MPEG Audio
Format version : Version 1
Format profile : Layer 3
Mode : Joint stereo
Mode extension : MS Stereo
Muxing mode : Header stripping
Codec ID : A_MPEG/L3
Codec ID/Hint : MP3
Duration : 2h 23mn
Bit rate mode : Variable
Bit rate : 172 Kbps
Minimum bit rate : 32.0 Kbps
Channel(s) : 2 channels
Sampling rate : 48.0 KHz
Stream size : 176 MiB (9%)
Title : Blood Diamond - Hindi
Writing library : LAME3.98r
Encoding settings : -m j -V 0 -q 3 -lowpass 19.5 --vbr-old -b 32
Language : Hindi

Screens:







DOWNLOAD THIS TORRENT

 
capriDate: Thursday, 2010-12-30, 7:58 PM | Message # 2
Private
Group: Users
Messages: 17
Awards: 0
Reputation: 0
Status: Offline
thanks very good movie

Added (2010-12-30, 7:58 PM)
---------------------------------------------
plz, seed

 
Forum » TORRENT MOVIES » 720p - 1080p HIndi Dubbed » Blood Diamond [2006] 720P BRRip [Dual-Audio] [English+Hindi] (Blood Diamond [2006] 720P BRRip [Dual-Audio] [English+Hindi)
Page 1 of 11
Search:

Manage Attachments - BindassDesi - The Open Internet Forums
Close this window Manage Attachments
Upload File from your Computer


Upload File from a URL

image Attachment Key
Filetype Max Filesize Max Width Max Height
image torrent 976.6 KB - -