Your Ad Here
[ New messages · Members · Forum rules · Search · RSS ]
Page 1 of 11
Forum » TORRENT MOVIES » 720p - 1080p HIndi Dubbed » Predators 2010 BRRip 720p Hindi-Eng 5.1 channel~3385VKSH
Predators 2010 BRRip 720p Hindi-Eng 5.1 channel~3385VKSH
3385VKSHDate: Saturday, 2011-01-01, 3:49 PM | Message # 1
Sergeant
Group: Moderators
Messages: 21
Awards: 2
Reputation: 0
Status: Offline


Chosen for their ability to kill without conscience, a group of killers,
some trained and some who are not, must endeavour the alien race of predators
that have set out to target them as prey. Dropped into the vast jungle of a
distant world, these human predators must learn just who, or what, they
are up against, and that their ability, knowledge and wits are tested to
the limits in the battle of survival of kill or be killed.


General
UniqueID : 201275340970529740439372312790383900737 (0x976C387AD3AE4C69A03A5EC9F426B841)
Complete name : G:\High Defination Movies\Predators 2010 BRRip 720p Hindi-Eng 5.1\Predators.mkv
Format : Matroska
File size : 2.27 GiB
Duration : 1h 46mn
Overall bit rate : 3 045 Kbps
Encoded date : UTC 2011-01-01 03:06:47
Writing application : mkvmerge v4.4.0 ('Die Wiederkehr') built on Oct 31 2010 21:52:48
Writing library : libebml v1.0.0 + libmatroska v1.0.0


http://www.imdb.com/title/tt1424381/


Video
ID : 1
Format : AVC
Format/Info : Advanced Video Codec
Format profile : High@L4.1
Format settings, CABAC : Yes
Format settings, ReFrames : 8 frames
Muxing mode : Header stripping
Codec ID : V_MPEG4/ISO/AVC
Duration : 1h 46mn
Bit rate : 2 408 Kbps
Width : 1 280 pixels
Height : 544 pixels
Display aspect ratio : 2.35:1
Frame rate : 23.976 fps
Color space : YUV
Chroma subsampling : 4:2:0
Bit depth : 8 bits
Scan type : Progressive
Bits/(Pixel*Frame) : 0.144
Stream size : 1.80 GiB (79%)


Audio #1
ID : 2
Format : AC-3
Format/Info : Audio Coding 3
Mode extension : CM (complete main)
Muxing mode : Header stripping
Codec ID : A_AC3
Duration : 1h 46mn
Bit rate mode : Constant
Bit rate : 384 Kbps
Channel(s) : 6 channels
Channel positions : Front: L C R, Side: L R, LFE
Sampling rate : 48.0 KHz
Bit depth : 16 bits
Compression mode : Lossy
Stream size : 294 MiB (13%)
Title : VKS3385
Language : Hindi

Audio #2
ID : 3
Format : AC-3
Format/Info : Audio Coding 3
Mode extension : CM (complete main)
Muxing mode : Header stripping
Codec ID : A_AC3
Duration : 1h 46mn
Bit rate mode : Constant
Bit rate : 192 Kbps
Channel(s) : 6 channels
Channel positions : Front: L C R, Side: L R, LFE
Sampling rate : 48.0 KHz
Bit depth : 16 bits
Compression mode : Lossy
Stream size : 147 MiB (6%)
Title : VKS3385
Language : English






Torrent



 
Forum » TORRENT MOVIES » 720p - 1080p HIndi Dubbed » Predators 2010 BRRip 720p Hindi-Eng 5.1 channel~3385VKSH
Page 1 of 11
Search:

Manage Attachments - BindassDesi - The Open Internet Forums
Close this window Manage Attachments
Upload File from your Computer


Upload File from a URL

image Attachment Key
Filetype Max Filesize Max Width Max Height
image torrent 976.6 KB - -