Transformers [2007]720P BRRip[Dual-Audio][Eng-Hindi]~Dip1990 - Forum
Your Ad Here
[ New messages · Members · Forum rules · Search · RSS ]
Page 1 of 11
Forum » TORRENT MOVIES » 720p - 1080p HIndi Dubbed » Transformers [2007]720P BRRip[Dual-Audio][Eng-Hindi]~Dip1990 (Transformers [2007]720P BRRip[Dual-Audio][Eng-Hindi]~Dip1990)
Transformers [2007]720P BRRip[Dual-Audio][Eng-Hindi]~Dip1990
boniinDate: Sunday, 2011-01-09, 1:50 PM | Message # 1
Lieutenant colonel
Group: Administrators
Messages: 116
Awards: 5
Reputation: 10
Status: Offline
[FONT=Impact]Dip1990[/FONT]




[CENTER] Transformers [2007] 720P BRRip [Dual-Audio] [Eng-Hindi]_Dip1990 [/CENTER]

[URL="http://www.imdb.com/title/tt0418279/"]IMDB LINK[/URL]
General
Complete name : Transformers [2007] [Dual-Audio] [English+Hindi]_Dip1990.mkv
IMDB Rating : 7.4/10 165,623 votes
Format : Matroska
File size : 2.13 GiB
Duration : 2h 23mn
Overall bit rate : 2 128 Kbps
Encoded date : UTC 2010-08-08 21:09:35
Writing application : mkvmerge v4.2.0 ('No Talking') built on Jul 28 2010 18:38:23
Writing library : libebml v1.0.0 + libmatroska v1.0.0

Video
ID : 1
Format : AVC
Format/Info : Advanced Video Codec
Format profile : Main@L4.1
Format settings, CABAC : Yes
Format settings, ReFrames : 3 frames
Muxing mode : Container profile=Unknown@4.1
Codec ID : V_MPEG4/ISO/AVC
Duration : 2h 23mn
Bit rate : 1 820 Kbps
Width : 1 280 pixels
Height : 528 pixels
Display aspect ratio : 2.40:1
Frame rate : 23.976 fps
Color space : YUV
Chroma subsampling : 4:2:0
Bit depth : 8 bits
Scan type : Progressive
Bits/(Pixel*Frame) : 0.112
Stream size : 1.75 GiB (82%)
Title : Transformers
Writing library : x264 core 67 r1169M ab85c9b
Encoding settings : cabac=1 / ref=3 / deblock=1:0:0 / analyse=0x1:0x111 / me=umh / subme=7 / psy_rd=1.0:0.0 / mixed_ref=1 / me_range=16 / chroma_me=1 / trellis=2 / 8x8dct=0 / cqm=0 / deadzone=21,11 / chroma_qp_offset=-2 / threads=3 / nr=0 / decimate=1 / mbaff=0 / bframes=3 / b_pyramid=0 / b_adapt=2 / b_bias=0 / direct=1 / wpredb=1 / keyint=250 / keyint_min=25 / scenecut=40 / rc=2pass / bitrate=1820 / ratetol=1.0 / qcomp=0.60 / qpmin=10 / qpmax=51 / qpstep=4 / cplxblur=20.0 / qblur=0.5 / ip_ratio=1.40 / pb_ratio=1.30 / aq=1:1.00

Audio #1
ID : 2
Format : Vorbis
Format settings, Floor : 1
Codec ID : A_VORBIS
Duration : 2h 23mn
Bit rate mode : Constant
Bit rate : 112 Kbps
Channel(s) : 2 channels
Sampling rate : 48.0 KHz
Stream size : 115 MiB (5%)
Title : Transformers - English
Writing library : aoTuV b5a (UTC 2008-03-30)

Audio #2
ID : 3
Format : Vorbis
Format settings, Floor : 1
Codec ID : A_VORBIS
Duration : 2h 23mn
Bit rate mode : Constant
Bit rate : 224 Kbps
Channel(s) : 2 channels
Sampling rate : 48.0 KHz
Stream size : 230 MiB (11%)
Title : Transformers - Hindi
Writing library : aoTuV b5a (UTC 2008-03-30)
Language : Hindi









http://download155.mediafire.com/nimd83f....ple.mkv






Download Torrent File Here

 
Ashu2396Date: Sunday, 2011-01-09, 2:00 PM | Message # 2
Private
Group: Users
Messages: 5
Awards: 0
Reputation: 0
Status: Offline
thaks a lot
i was waiting for it
plz upload its part 2 also
thanks
[i][u] smile
 
atc87Date: Sunday, 2011-01-09, 2:33 PM | Message # 3
Private
Group: Users
Messages: 7
Awards: 0
Reputation: 0
Status: Offline
Thanks.. I was also waiting for this release.. Plz upload part 2... Gr8 work... HDDR Rockzzzz....
 
sawant12Date: Monday, 2011-01-10, 11:28 PM | Message # 4
Private
Group: Checked
Messages: 9
Awards: 0
Reputation: 0
Status: Offline
hey plz upload transformers collection in hdrip plz boniin..
 
praveenDate: Wednesday, 2011-01-12, 5:33 PM | Message # 5
Sergeant
Group: Users
Messages: 21
Awards: 0
Reputation: 0
Status: Offline
PLEASE UPLOAD THESE ALL ANIMATED MOVIES IN HINDI

1- EL DOREDO
2- SPIRIT
3- HAPPY FEET
4- PRINCESS AND THE FROG

PLEASE PLEASE PLEASE UPLOAD ABOVE MOVIE I AM HUMBLY REQUESTED YOU TO

 
HirenDate: Saturday, 2014-11-29, 9:51 AM | Message # 6
Private
Group: Users
Messages: 1
Awards: 0
Reputation: 0
Status: Offline
Thanks
 
Forum » TORRENT MOVIES » 720p - 1080p HIndi Dubbed » Transformers [2007]720P BRRip[Dual-Audio][Eng-Hindi]~Dip1990 (Transformers [2007]720P BRRip[Dual-Audio][Eng-Hindi]~Dip1990)
Page 1 of 11
Search:

Manage Attachments - BindassDesi - The Open Internet Forums
Close this window Manage Attachments
Upload File from your Computer


Upload File from a URL

image Attachment Key
Filetype Max Filesize Max Width Max Height
image torrent 976.6 KB - -