Your Ad Here
[ New messages · Members · Forum rules · Search · RSS ]
Page 1 of 11
Forum » TORRENT MOVIES » 720p - 1080p HIndi Dubbed » In The Name Of The King 2007 BRRip 720p Hindi~3385VKSH
In The Name Of The King 2007 BRRip 720p Hindi~3385VKSH
3385VKSHDate: Wednesday, 2011-01-12, 6:21 PM | Message # 1
Sergeant
Group: Moderators
Messages: 21
Awards: 2
Reputation: 0
Status: Offline
[CENTER]


A man named Farmer sets out to rescue his kidnapped wife and avenge
the death of his son -- two acts committed by the Krugs, a race of
animal-warriors who are controlled by the evil Gallian.


General
UniqueID : 205309953713974124095442316232746371390 (0x9A75423F00C6E01080F72E6F14D8893E)
Complete name : In The Name Of The King A Dungeon Siege Tale 2007 BRRip 720p Hindi~3385VKSH
Format : Matroska
File size : 2.30 GiB
Duration : 2h 1mn
Overall bit rate : 2 698 Kbps
Encoded date : UTC 2011-01-08 06:38:22
Writing application : mkvmerge v4.4.0 ('Die Wiederkehr') built on Oct 31 2010 21:52:48
Writing library : libebml v1.0.0 + libmatroska v1.0.0


http://www.imdb.com/title/tt0460780/


Video
ID : 1
Format : AVC
Format/Info : Advanced Video Codec
Format profile : High@L4.1
Format settings, CABAC : Yes
Format settings, ReFrames : 8 frames
Muxing mode : Header stripping
Codec ID : V_MPEG4/ISO/AVC
Duration : 2h 1mn
Bit rate : 2 516 Kbps
Width : 1 280 pixels
Height : 544 pixels
Display aspect ratio : 2.35:1
Frame rate : 25.000 fps
Original frame rate : 23.976 fps
Color space : YUV
Chroma subsampling : 4:2:0
Bit depth : 8 bits
Scan type : Progressive
Bits/(Pixel*Frame) : 0.145
Stream size : 2.14 GiB (93%)


Audio
ID : 2
Format : MPEG Audio
Format version : Version 1
Format profile : Layer 3
Muxing mode : Header stripping
Codec ID : A_MPEG/L3
Codec ID/Hint : MP3
Duration : 2h 1mn
Bit rate mode : Constant
Bit rate : 128 Kbps
Channel(s) : 2 channels
Sampling rate : 44.1 KHz
Compression mode : Lossy
Video delay : 9ms
Stream size : 112 MiB (5%)
Writing library : LAME3.96.1





And add repps and hit thanx if u like it....:stupids:

Sample is in the torrent...:groupwave:

Download Torrent Here
[/CENTER]



 
boniinDate: Wednesday, 2011-01-12, 6:34 PM | Message # 2
Lieutenant colonel
Group: Administrators
Messages: 116
Awards: 5
Reputation: 10
Status: Offline
superb rip bro ..nice share....hey guys plz comment here
 
atc87Date: Thursday, 2011-01-13, 8:07 AM | Message # 3
Private
Group: Users
Messages: 7
Awards: 0
Reputation: 0
Status: Offline
Nice share bro... Thanks..
 
HunkDate: Tuesday, 2011-01-18, 4:06 AM | Message # 4
Private
Group: Users
Messages: 1
Awards: 0
Reputation: 0
Status: Offline
Nice upload but movie is not so good
there are little bit audio problem in last part of movie
other wise gr8 upload


Message edited by Hunk - Tuesday, 2011-01-18, 4:13 AM
 
Forum » TORRENT MOVIES » 720p - 1080p HIndi Dubbed » In The Name Of The King 2007 BRRip 720p Hindi~3385VKSH
Page 1 of 11
Search:

Manage Attachments - BindassDesi - The Open Internet Forums
Close this window Manage Attachments
Upload File from your Computer


Upload File from a URL

image Attachment Key
Filetype Max Filesize Max Width Max Height
image torrent 976.6 KB - -