Transformers - Revenge Of The Fallen [2009] 720P BRRip - Forum
Your Ad Here
[ New messages · Members · Forum rules · Search · RSS ]
Page 1 of 11
Forum » TORRENT MOVIES » 720p - 1080p HIndi Dubbed » Transformers - Revenge Of The Fallen [2009] 720P BRRip ([Dual-Audio] [Eng-Hindi] Dip1990)
Transformers - Revenge Of The Fallen [2009] 720P BRRip
boniinDate: Wednesday, 2011-01-19, 8:48 AM | Message # 1
Lieutenant colonel
Group: Administrators
Messages: 116
Awards: 5
Reputation: 10
Status: Offline
Dip1990




[CENTER] [COLOR=blue]Transformers Revenge Of The Fallen [2009] [Dual-Audio] [English+Hindi]_Dip1990 [/CENTER]


[URL="http://www.imdb.com/title/tt1055369/"]IMDB LINK[/URL]
General
Complete name : Transformers Revenge Of The Fallen [2009] [Dual-Audio] [English+Hindi]_Dip1990.mkv
IMDB Rating : 6.2/10 63,704 votes
Format : Matroska
File size : 2.16 GiB
Duration : 2h 29mn
Overall bit rate : 2 064 Kbps
Encoded date : UTC 2010-08-11 14:55:50
Writing application : mkvmerge v4.2.0 ('No Talking') built on Jul 28 2010 18:38:23
Writing library : libebml v1.0.0 + libmatroska v1.0.0

Video
ID : 1
Format : AVC
Format/Info : Advanced Video Codec
Format profile : Main@L4.1
Format settings, CABAC : Yes
Format settings, ReFrames : 4 frames
Muxing mode : Container profile=Unknown@4.1
Codec ID : V_MPEG4/ISO/AVC
Duration : 2h 29mn
Bit rate : 1 750 Kbps
Width : 1 280 pixels
Height : 544 pixels
Display aspect ratio : 2.35:1
Frame rate : 23.976 fps
Color space : YUV
Chroma subsampling : 4:2:0
Bit depth : 8 bits
Scan type : Progressive
Bits/(Pixel*Frame) : 0.105
Stream size : 1.77 GiB (82%)
Title : Transformers Revenge Of The Fallen
Writing library : x264 core 75 r1259M dd026f2
Encoding settings : cabac=1 / ref=4 / deblock=1:0:0 / analyse=0x1:0x111 / me=umh / subme=9 / psy=1 / psy_rd=1.0:0.0 / mixed_ref=1 / me_range=16 / chroma_me=1 / trellis=2 / 8x8dct=0 / cqm=0 / deadzone=21,11 / chroma_qp_offset=-2 / threads=3 / slices=3 / nr=0 / decimate=1 / mbaff=0 / bframes=3 / b_pyramid=0 / b_adapt=2 / b_bias=0 / direct=1 / wpredb=1 / keyint=250 / keyint_min=25 / scenecut=40 / rc_lookahead=50 / rc=2pass / mbtree=1 / bitrate=1750 / ratetol=1.0 / qcomp=0.60 / qpmin=10 / qpmax=51 / qpstep=4 / cplxblur=20.0 / qblur=0.5 / ip_ratio=1.40 / aq=1:1.00

Audio #1
ID : 2
Format : Vorbis
Format settings, Floor : 1
Codec ID : A_VORBIS
Duration : 2h 29mn
Bit rate mode : Constant
Bit rate : 112 Kbps
Channel(s) : 2 channels
Sampling rate : 48.0 KHz
Stream size : 120 MiB (5%)
Title : Transformers Revenge Of The Fallen - English
Writing library : aoTuV b5a (UTC 2008-03-30)

Audio #2
ID : 3
Format : Vorbis
Format settings, Floor : 1
Codec ID : A_VORBIS
Duration : 2h 29mn
Bit rate mode : Constant
Bit rate : 224 Kbps
Channel(s) : 2 channels
Sampling rate : 48.0 KHz
Stream size : 240 MiB (11%)
Title : Transformers Revenge Of The Fallen - Hindi
Writing library : aoTuV b5a (UTC 2008-03-30)
Language : Hindi










http://download846.mediafire.com/293kiqu....ple.mkv






Download Torrent File Here

 
boniinDate: Wednesday, 2011-01-19, 8:49 AM | Message # 2
Lieutenant colonel
Group: Administrators
Messages: 116
Awards: 5
Reputation: 10
Status: Offline
plz say thanx to Dip1990 for this beautiful rip
 
Ashu2396Date: Wednesday, 2011-01-19, 9:28 AM | Message # 3
Private
Group: Users
Messages: 5
Awards: 0
Reputation: 0
Status: Offline
thankz bro
it was my most awaited movie
gr8 rip
keep it up!!!!!!!!!!!
 
viruDate: Wednesday, 2011-01-19, 4:13 PM | Message # 4
Private
Group: Users
Messages: 3
Awards: 0
Reputation: 0
Status: Offline
many many thanks bro............ tongue tongue tongue
 
sawant12Date: Wednesday, 2011-01-19, 7:33 PM | Message # 5
Private
Group: Checked
Messages: 9
Awards: 0
Reputation: 0
Status: Offline
thkssss
 
HarshadDate: Wednesday, 2011-01-19, 9:43 PM | Message # 6
Private
Group: Checked
Messages: 14
Awards: 2
Reputation: 2
Status: Offline
great job....one of my favourite.....thanks
 
MAKDate: Friday, 2011-01-21, 6:42 PM | Message # 7
Private
Group: Users
Messages: 2
Awards: 0
Reputation: 0
Status: Offline
Thanx bro for g8 job :))
 
praveenDate: Saturday, 2011-01-22, 3:13 PM | Message # 8
Sergeant
Group: Users
Messages: 21
Awards: 0
Reputation: 0
Status: Offline
THANKS BRO CAN YOU PLEASE UPLOAD ''' HAPPY FEET IN HIND '' PLEASE I VERY NEED THIS MOVIE
 
milanDate: Friday, 2011-01-28, 11:16 AM | Message # 9
Private
Group: Users
Messages: 1
Awards: 0
Reputation: 0
Status: Offline
thanks
 
kush700Date: Saturday, 2011-06-04, 7:42 PM | Message # 10
Private
Group: Users
Messages: 2
Awards: 0
Reputation: 0
Status: Offline
thanks bro

Added (2011-06-04, 7:42 PM)
---------------------------------------------
surprised what a quality bro u r providing thankfull to u . .

 
avisterDate: Wednesday, 2012-06-13, 9:46 PM | Message # 11
Private
Group: Users
Messages: 4
Awards: 0
Reputation: 0
Status: Offline
thankz bro ,gr8 quality,
gr8 rip
keep it up!!!
 
Forum » TORRENT MOVIES » 720p - 1080p HIndi Dubbed » Transformers - Revenge Of The Fallen [2009] 720P BRRip ([Dual-Audio] [Eng-Hindi] Dip1990)
Page 1 of 11
Search:

Manage Attachments - BindassDesi - The Open Internet Forums
Close this window Manage Attachments
Upload File from your Computer


Upload File from a URL

image Attachment Key
Filetype Max Filesize Max Width Max Height
image torrent 976.6 KB - -