Harry Potter And The Half-Blood Prince 2009 BRRip HINDI~ - Forum
Your Ad Here
[ New messages · Members · Forum rules · Search · RSS ]
Page 1 of 11
Forum » TORRENT MOVIES » 720p - 1080p HIndi Dubbed » Harry Potter And The Half-Blood Prince 2009 BRRip HINDI~ (3385VKSH)
Harry Potter And The Half-Blood Prince 2009 BRRip HINDI~
boniinDate: Wednesday, 2011-01-19, 7:09 PM | Message # 1
Lieutenant colonel
Group: Administrators
Messages: 116
Awards: 5
Reputation: 10
Status: Offline


In the sixth year at Hogwarts School of Witchcraft, and in both wizard and muggle worlds Lord Voldemort and his henchmen

are increasingly active. With vacancies to fill at Hogwarts, Professor Dumbledore persuades Horace Slughorn, back from

retirement to become the potions teacher, while Professor Snape receives long awaited news. Harry Potter, together with

Dumbledore, must face treacherous tasks to defeat his evil nemesis.


General
UniqueID : 245173547209647855089651120578486406257 (0xB872B5263573296DBF7EDCEB2BC50C71)
Complete name : 6 Harry Potter And The Half-Blood Prince 2009 BRRip HINDI~3385VKSH
Format : Matroska
File size : 2.00 GiB
Duration : 2h 27mn
Overall bit rate : 1 949 Kbps
Encoded date : UTC 2010-08-25 14:40:14
Writing application : mkvmerge v4.2.0 ('No Talking') built on Jul 28 2010 18:38:23
Writing library : libebml v1.0.0 + libmatroska v1.0.0


http://www.imdb.com/title/tt0417741/


Video
ID : 1
Format : AVC
Format/Info : Advanced Video Codec
Format profile : High@L4.1
Format settings, CABAC : Yes
Format settings, ReFrames : 5 frames
Muxing mode : Header stripping
Codec ID : V_MPEG4/ISO/AVC
Duration : 2h 27mn
Bit rate : 1 782 Kbps
Width : 1 280 pixels
Height : 544 pixels
Display aspect ratio : 2.35:1
Frame rate : 25.000 fps
Original frame rate : 23.976 fps
Color space : YUV
Chroma subsampling : 4:2:0
Bit depth : 8 bits
Scan type : Progressive
Bits/(Pixel*Frame) : 0.102
Stream size : 1.83 GiB (91%)


Audio
ID : 2
Format : MPEG Audio
Format version : Version 1
Format profile : Layer 3
Muxing mode : Header stripping
Codec ID : A_MPEG/L3
Codec ID/Hint : MP3
Duration : 2h 27mn
Bit rate mode : Constant
Bit rate : 128 Kbps
Channel(s) : 2 channels
Sampling rate : 44.1 KHz
Compression mode : Lossy
Video delay : 16ms
Stream size : 135 MiB (7%)






Download Torrent File Here

 
Forum » TORRENT MOVIES » 720p - 1080p HIndi Dubbed » Harry Potter And The Half-Blood Prince 2009 BRRip HINDI~ (3385VKSH)
Page 1 of 11
Search:

Manage Attachments - BindassDesi - The Open Internet Forums
Close this window Manage Attachments
Upload File from your Computer


Upload File from a URL

image Attachment Key
Filetype Max Filesize Max Width Max Height
image torrent 976.6 KB - -