Snow.White.and.The.Seven.Dwarfs[Special.Edition][1937]BluRay - Forum
Your Ad Here
[ New messages · Members · Forum rules · Search · RSS ]
Page 1 of 11
Forum » TORRENT MOVIES » 720p - 1080p HIndi Dubbed » Snow.White.and.The.Seven.Dwarfs[Special.Edition][1937]BluRay (Snow.White.and.The.Seven.Dwarfs[Special.Edition][1937]BluRay)
Snow.White.and.The.Seven.Dwarfs[Special.Edition][1937]BluRay
3385VKSHDate: Friday, 2011-01-21, 5:33 PM | Message # 1
Sergeant
Group: Moderators
Messages: 21
Awards: 2
Reputation: 0
Status: Offline

General
Complete name : Snow.White.and.The.Seven.Dwarfs[Special.Edition][1937]BluRay.720p.x264.AC3[HinDi-Eng]-[SnowDoN-IcTv].mkv
Format : Matroska
File size : 868 MiB
Duration : 1h 23mn
Overall bit rate : 1 459 Kbps
Movie name : Snow.White.and.The.Seven.Dwarfs[Special.Edition][1937]BluRay.720p.x264.AC3[HinDi-Eng]-[SnowDoN-IcTv]
Encoded date : UTC 2011-01-20 21:42:25
Writing application : mkvmerge v4.4.0 ('Die Wiederkehr') built on Oct 31 2010 21:52:48
Writing library : libebml v1.0.0 + libmatroska v1.0.0

Video
ID : 1
Format : AVC
Format/Info : Advanced Video Codec
Format profile : High@L3.1
Format settings, CABAC : Yes
Format settings, ReFrames : 4 frames
Muxing mode : Container profile=Unknown@3.1
Codec ID : V_MPEG4/ISO/AVC
Duration : 1h 23mn
Bit rate : 1 046 Kbps
Width : 1 280 pixels
Height : 720 pixels
Display aspect ratio : 16:9
Frame rate mode : Variable
Frame rate : 23.976 fps
Resolution : 8 bits
Colorimetry : 4:2:0
Scan type : Progressive
Bits/(Pixel*Frame) : 0.047
Stream size : 622 MiB (72%)
Title : Snow.White.and.The.Seven.Dwarfs[Special.Edition][1937]BluRay.720p.x264.AC3[HinDi-Eng]-[SnowDoN-IcTv]
Writing library : x264 core 106 r1732 b20059a
Encoding settings : cabac=1 / ref=3 / deblock=1:0:0 / analyse=0x3:0x113 / me=hex / subme=7 / psy=1 / psy_rd=1.00:0.00 / mixed_ref=1 / me_range=16 / chroma_me=1 / trellis=1 / 8x8dct=1 / cqm=0 / deadzone=21,11 / fast_pskip=1 / chroma_qp_offset=-2 / threads=6 / sliced_threads=0 / nr=0 / decimate=1 / interlaced=0 / constrained_intra=0 / bframes=3 / b_pyramid=2 / b_adapt=1 / b_bias=0 / direct=1 / weightb=1 / open_gop=0 / weightp=2 / keyint=250 / keyint_min=23 / scenecut=40 / intra_refresh=0 / rc_lookahead=40 / rc=crf / mbtree=1 / crf=26.0 / qcomp=0.60 / qpmin=10 / qpmax=51 / qpstep=4 / ip_ratio=1.40 / aq=1:1.00

Audio #1
ID : 2
Format : AC-3
Format/Info : Audio Coding 3
Codec ID : A_AC3
Duration : 1h 23mn
Bit rate mode : Constant
Bit rate : 192 Kbps
Channel(s) : 6 channels
Channel positions : Front: L C R, Surround: L R, LFE
Sampling rate : 48.0 KHz
Video delay : -42ms
Stream size : 114 MiB (13%)
Title : [HinDi]-[SnowDoN-IcTv]
Language : Hindi

Audio #2
ID : 3
Format : AC-3
Format/Info : Audio Coding 3
Codec ID : A_AC3
Duration : 1h 23mn
Bit rate mode : Constant
Bit rate : 192 Kbps
Channel(s) : 2 channels
Channel positions : L R
Sampling rate : 48.0 KHz
Video delay : -42ms
Stream size : 114 MiB (13%)
Title : [Eng]-[SnowDoN-IcTv]

Download Torrent



 
boniinDate: Friday, 2011-01-21, 5:41 PM | Message # 2
Lieutenant colonel
Group: Administrators
Messages: 116
Awards: 5
Reputation: 10
Status: Offline
superb rip...gud share bro
 
ZakirDate: Friday, 2011-01-21, 9:22 PM | Message # 3
Private
Group: Users
Messages: 7
Awards: 0
Reputation: 0
Status: Offline
good..one thanks...dude
 
aliDate: Saturday, 2011-01-22, 12:17 PM | Message # 4
Sergeant
Group: Checked
Messages: 26
Awards: 1
Reputation: 0
Status: Offline
can i upload any dub movie
 
Forum » TORRENT MOVIES » 720p - 1080p HIndi Dubbed » Snow.White.and.The.Seven.Dwarfs[Special.Edition][1937]BluRay (Snow.White.and.The.Seven.Dwarfs[Special.Edition][1937]BluRay)
Page 1 of 11
Search:

Manage Attachments - BindassDesi - The Open Internet Forums
Close this window Manage Attachments
Upload File from your Computer


Upload File from a URL

image Attachment Key
Filetype Max Filesize Max Width Max Height
image torrent 976.6 KB - -