Orphan 2009 480p [Dual-Audio] [English+Hindi]_~Dip1990 - Forum
Your Ad Here
[ New messages · Members · Forum rules · Search · RSS ]
Page 1 of 11
Forum » TORRENT MOVIES » 720p - 1080p HIndi Dubbed » Orphan 2009 480p [Dual-Audio] [English+Hindi]_~Dip1990 (Dip1990)
Orphan 2009 480p [Dual-Audio] [English+Hindi]_~Dip1990
boniinDate: Thursday, 2011-01-27, 3:37 PM | Message # 1
Lieutenant colonel
Group: Administrators
Messages: 116
Awards: 5
Reputation: 10
Status: Offline
Dip1990




[CENTER] Orphan [2009] [Dual-Audio] [English+Hindi]_Dip1990 [/CENTER]


[URL="http://www.imdb.com/title/tt1148204/"]IMDB LINK[/URL]
General
Complete name : Orphan [2009] [Dual-Audio] [English+Hindi]_Dip1990.mkv
Format : Matroska
File size : 1.05 GiB
Duration : 2h 2mn
Overall bit rate : 1 225 Kbps
Movie name : Orphan
Encoded date : UTC 2010-12-07 20:05:05
Writing application : mkvmerge v4.4.0 ('Die Wiederkehr') built on Oct 31 2010 21:52:48
Writing library : libebml v1.0.0 + libmatroska v1.0.0
Cover : Yes

Video
ID : 1
Format : AVC
Format/Info : Advanced Video Codec
Format profile : High@L3.0
Format settings, CABAC : Yes
Format settings, ReFrames : 4 frames
Muxing mode : Header stripping
Codec ID : V_MPEG4/ISO/AVC
Duration : 2h 2mn
Bit rate : 963 Kbps
Width : 720 pixels
Height : 480 pixels
Display aspect ratio : 16:9
Frame rate : 23.976 fps
Standard : NTSC
Color space : YUV
Chroma subsampling : 4:2:0
Bit depth : 8 bits
Scan type : Progressive
Bits/(Pixel*Frame) : 0.116
Stream size : 847 MiB (79%)
Title : Orphan
Language : English

Audio #1
ID : 2
Format : MPEG Audio
Format version : Version 1
Format profile : Layer 3
Mode : Joint stereo
Mode extension : MS Stereo
Muxing mode : Header stripping
Codec ID : A_MPEG/L3
Codec ID/Hint : MP3
Duration : 2h 2mn
Bit rate mode : Variable
Bit rate : 85.8 Kbps
Minimum bit rate : 32.0 Kbps
Channel(s) : 2 channels
Sampling rate : 48.0 KHz
Compression mode : Lossy
Stream size : 75.4 MiB (7%)
Title : Orphan - English
Writing library : LAME3.98r
Encoding settings : -m j -V 6 -q 3 -lowpass 15.6 --vbr-old -b 32
Language : English

Audio #2
ID : 3
Format : MPEG Audio
Format version : Version 1
Format profile : Layer 3
Mode : Joint stereo
Mode extension : MS Stereo
Muxing mode : Header stripping
Codec ID : A_MPEG/L3
Codec ID/Hint : MP3
Duration : 2h 2mn
Bit rate mode : Variable
Bit rate : 152 Kbps
Minimum bit rate : 32.0 Kbps
Channel(s) : 2 channels
Sampling rate : 48.0 KHz
Compression mode : Lossy
Stream size : 133 MiB (12%)
Title : Orphan - Hindi
Writing library : LAME3.98r
Encoding settings : -m j -V 0 -q 3 -lowpass 19.5 --vbr-old -b 32
Language : Hindi








http://download1121.mediafire.com/jks4wdj....ple.mkv






Download Torrent File Here

 
boniinDate: Thursday, 2011-01-27, 3:39 PM | Message # 2
Lieutenant colonel
Group: Administrators
Messages: 116
Awards: 5
Reputation: 10
Status: Offline
plz say thanx to Dip1990 for this beautiful rip
 
MirDate: Friday, 2011-01-28, 10:57 AM | Message # 3
Private
Group: Users
Messages: 9
Awards: 0
Reputation: 0
Status: Offline
Thnks bro u did awesome work
 
Forum » TORRENT MOVIES » 720p - 1080p HIndi Dubbed » Orphan 2009 480p [Dual-Audio] [English+Hindi]_~Dip1990 (Dip1990)
Page 1 of 11
Search:

Manage Attachments - BindassDesi - The Open Internet Forums
Close this window Manage Attachments
Upload File from your Computer


Upload File from a URL

image Attachment Key
Filetype Max Filesize Max Width Max Height
image torrent 976.6 KB - -