Monster House (2006) - BRRip Hindi~3385VKSH - Forum
Your Ad Here
[ New messages · Members · Forum rules · Search · RSS ]
Page 1 of 11
Forum » TORRENT MOVIES » 720p - 1080p HIndi Dubbed » Monster House (2006) - BRRip Hindi~3385VKSH
Monster House (2006) - BRRip Hindi~3385VKSH
3385VKSHDate: Monday, 2011-02-14, 10:01 PM | Message # 1
Sergeant
Group: Moderators
Messages: 21
Awards: 2
Reputation: 0
Status: Offline


The teenage DJ is observing his neighbor Nebbercracker on the other side of their street in the suburb that destroys tricycles of children that trespass his lawn. When DJ's parents travel on the eve of Halloween and the abusive nanny Zee stays with him, he calls his clumsy best friend Chowder to play basketball. But when the ball falls in Nebbercracker's lawn, the old man has a siege, and soon they find that the house is a monster. Later the boys rescue the smart Jenny from the house and the trio unsuccessfully tries to convince the babysitter, her boyfriend Bones and two police officers that the haunted house is a monster, but nobody believes them. The teenagers ask their video-game addicted acquaintance Skull how to destroy the house, and they disclose its secret on the Halloween night.


General
UniqueID : 220441653782215880121653922352788789744 (0xA5D784A8D11FC81B997A201FD7EDD9F0)
Complete name : Monster House (2006) - BRRip Hindi~3385VKSH
Format : Matroska
File size : 1.32 GiB
Duration : 1h 30mn
Overall bit rate : 2 088 Kbps
Encoded date : UTC 2011-01-30 13:25:39
Writing application : mkvmerge v4.4.0 ('Die Wiederkehr') built on Oct 31 2010 21:52:48
Writing library : libebml v1.0.0 + libmatroska v1.0.0


www.imdb.com/title/tt0385880/


Video
ID : 1
Format : AVC
Format/Info : Advanced Video Codec
Format profile : High@L4.1
Format settings, CABAC : Yes
Format settings, ReFrames : 4 frames
Muxing mode : Header stripping
Codec ID : V_MPEG4/ISO/AVC
Duration : 1h 30mn
Bit rate : 1 918 Kbps
Width : 1 280 pixels
Height : 528 pixels
Display aspect ratio : 2.40:1
Frame rate : 23.976 fps
Color space : YUV
Chroma subsampling : 4:2:0
Bit depth : 8 bits
Scan type : Progressive
Bits/(Pixel*Frame) : 0.118
Stream size : 1.21 GiB (92%)


Audio
ID : 2
Format : MPEG Audio
Format version : Version 1
Format profile : Layer 3
Mode : Joint stereo
Mode extension : MS Stereo
Muxing mode : Header stripping
Codec ID : A_MPEG/L3
Codec ID/Hint : MP3
Duration : 1h 30mn
Bit rate mode : Constant
Bit rate : 128 Kbps
Channel(s) : 2 channels
Sampling rate : 44.1 KHz
Compression mode : Lossy
Video delay : 102ms
Stream size : 83.0 MiB (6%)
Writing library : LAME3.97






Quote
[center]
http://www.duckload.com/dl/uAGk2
http://www.duckload.com/dl/wAGk2
http://www.duckload.com/dl/kAGk2
http://www.duckload.com/dl/WAGk2
http://www.duckload.com/dl/VAGk2
http://www.duckload.com/dl/PAGk2
http://www.duckload.com/dl/OAGk2
http://www.duckload.com/dl/CAGk2
http://www.duckload.com/dl/gAGk2
http://www.duckload.com/dl/MzGk2
http://www.duckload.com/dl/HzGk2
http://www.duckload.com/dl/izGk2
http://www.duckload.com/dl/9zGk2
http://www.duckload.com/dl/4zGk2
http://www.duckload.com/dl/szGk2

http://hotfile.com/dl/104660987/10cd30a/Monster20House20 (2006)20-20BRRip20Hindi.part01.rar.html
http://hotfile.com/dl/104661122/3f8fb46/Monster20House20 (2006)20-20BRRip20Hindi.part02.rar.html
http://hotfile.com/dl/104661235/1afca5b/Monster20House20 (2006)20-20BRRip20Hindi.part03.rar.html
http://hotfile.com/dl/104661373/c2f0cef/Monster20House20 (2006)20-20BRRip20Hindi.part04.rar.html
http://hotfile.com/dl/104661506/74a7155/Monster20House20 (2006)20-20BRRip20Hindi.part05.rar.html
http://hotfile.com/dl/104661649/d3c8636/Monster20House20 (2006)20-20BRRip20Hindi.part06.rar.html
http://hotfile.com/dl/104661802/7d41766/Monster20House20 (2006)20-20BRRip20Hindi.part07.rar.html
http://hotfile.com/dl/104661919/f93319d/Monster20House20 (2006)20-20BRRip20Hindi.part08.rar.html
http://hotfile.com/dl/104662111/fb58ff7/Monster20House20 (2006)20-20BRRip20Hindi.part09.rar.html
http://hotfile.com/dl/104662259/ffdad3b/Monster20House20 (2006)20-20BRRip20Hindi.part10.rar.html
http://hotfile.com/dl/104662513/6d0c99b/Monster20House20 (2006)20-20BRRip20Hindi.part11.rar.html
http://hotfile.com/dl/104662707/b037c41/Monster20House20 (2006)20-20BRRip20Hindi.part12.rar.html
http://hotfile.com/dl/104662854/05633e3/Monster20House20 (2006)20-20BRRip20Hindi.part13.rar.html
http://hotfile.com/dl/104663003/cae54e4/Monster20House20 (2006)20-20BRRip20Hindi.part14.rar.html
http://hotfile.com/dl/104663039/565ecdb/Monster20House20 (2006)20-20BRRip20Hindi.part15.rar.html

http://rapidshare.com/files....01.rar;
http://rapidshare.com/files....02.rar;
http://rapidshare.com/files....03.rar;
http://rapidshare.com/files....04.rar;
http://rapidshare.com/files....05.rar;
http://rapidshare.com/files....06.rar;
http://rapidshare.com/files....07.rar;
http://rapidshare.com/files....08.rar;
http://rapidshare.com/files....09.rar;
http://rapidshare.com/files....10.rar;
http://rapidshare.com/files....11.rar;
http://rapidshare.com/files....12.rar;
http://rapidshare.com/files....13.rar;
http://rapidshare.com/files....14.rar;
http://rapidshare.com/files....15.rar;
[/center]






 
Forum » TORRENT MOVIES » 720p - 1080p HIndi Dubbed » Monster House (2006) - BRRip Hindi~3385VKSH
Page 1 of 11
Search:

Manage Attachments - BindassDesi - The Open Internet Forums
Close this window Manage Attachments
Upload File from your Computer


Upload File from a URL

image Attachment Key
Filetype Max Filesize Max Width Max Height
image torrent 976.6 KB - -