Your Ad Here
[ New messages · Members · Forum rules · Search · RSS ]
Page 1 of 11
Forum » TORRENT MOVIES » 720p - 1080p HIndi Dubbed » Dinosaur.2000.720p.BRRip Hindi~3385VKSH
Dinosaur.2000.720p.BRRip Hindi~3385VKSH
3385VKSHDate: Monday, 2011-02-14, 10:02 PM | Message # 1
Sergeant
Group: Moderators
Messages: 21
Awards: 2
Reputation: 0
Status: Offline


During an attack on a pack of Iguanodon, an egg is separated and ends up with the possession of a group of lemurs. The lemurs care for this egg and the young creature born from it, which they call Aladar. When a meteor shower hits earth, Aladar and his family must leave their homeland. Away from home and as close to danger as they have ever been, they meet up with a huge group of dinosaurs, led by Kron and Bruton. All together they are trying to reach the nesting grounds, but it's not going to be easy.


General
UniqueID : 211611082854260667428686775892533798157 (0x9F32CFE600DCD4B08F89A68BF4D7650D)
Complete name : Dinosaur.2000.720p.BRRip Hindi~3385VKSH
Format : Matroska
File size : 1.81 GiB
Duration : 1h 18mn
Overall bit rate : 3 292 Kbps
Encoded date : UTC 2011-02-06 13:15:18
Writing application : mkvmerge v4.4.0 ('Die Wiederkehr') built on Oct 31 2010 21:52:48
Writing library : libebml v1.0.0 + libmatroska v1.0.0


www.imdb.com/title/tt0130623/



Video
ID : 1
Format : MPEG-4 Visual
Format profile : Advanced Simple@L5
Format settings, BVOP : Yes
Format settings, QPel : No
Format settings, GMC : No warppoints
Format settings, Matrix : Default (H.263)
Codec ID : XVID
Codec ID/Hint : XviD
Duration : 1h 18mn
Bit rate : 3 098 Kbps
Width : 1 280 pixels
Height : 688 pixels
Display aspect ratio : 1.860
Frame rate : 25.000 fps
Original frame rate : 23.976 fps
Color space : YUV
Chroma subsampling : 4:2:0
Bit depth : 8 bits
Scan type : Progressive
Compression mode : Lossy
Bits/(Pixel*Frame) : 0.141
Stream size : 1.70 GiB (94%)
Writing library : XviD 1.2.1 (UTC 2008-12-04)


Audio
ID : 2
Format : MPEG Audio
Format version : Version 1
Format profile : Layer 3
Muxing mode : Header stripping
Codec ID : A_MPEG/L3
Codec ID/Hint : MP3
Duration : 1h 18mn
Bit rate mode : Constant
Bit rate : 128 Kbps
Channel(s) : 2 channels
Sampling rate : 44.1 KHz
Compression mode : Lossy
Video delay : 3s 0ms
Stream size : 72.0 MiB (4%)






Quote
[center]

http://www.duckload.com/dl/czGk2
http://www.duckload.com/dl/LzGk2
http://www.duckload.com/dl/hzGk2
http://www.duckload.com/dl/KzGk2
http://www.duckload.com/dl/NzGk2
http://www.duckload.com/dl/6zGk2
http://www.duckload.com/dl/yzGk2
http://www.duckload.com/dl/dzGk2
http://www.duckload.com/dl/BzGk2
http://www.duckload.com/dl/3zGk2
http://www.duckload.com/dl/vzGk2
http://www.duckload.com/dl/TzGk2
http://www.duckload.com/dl/fzGk2
http://www.duckload.com/dl/ezGk2
http://www.duckload.com/dl/RzGk2
http://www.duckload.com/dl/QzGk2
http://www.duckload.com/dl/DzGk2
http://www.duckload.com/dl/uzGk2
http://www.duckload.com/dl/wzGk2
http://www.duckload.com/dl/VzGk2

http://hotfile.com/dl....ar.html
http://hotfile.com/dl....ar.html
http://hotfile.com/dl....ar.html
http://hotfile.com/dl....ar.html
http://hotfile.com/dl....ar.html
http://hotfile.com/dl....ar.html
http://hotfile.com/dl....ar.html
http://hotfile.com/dl....ar.html
http://hotfile.com/dl....ar.html
http://hotfile.com/dl....ar.html
http://hotfile.com/dl....ar.html
http://hotfile.com/dl....ar.html
http://hotfile.com/dl....ar.html
http://hotfile.com/dl....ar.html
http://hotfile.com/dl....ar.html
http://hotfile.com/dl....ar.html
http://hotfile.com/dl....ar.html
http://hotfile.com/dl....ar.html
http://hotfile.com/dl....ar.html
http://hotfile.com/dl....ar.html

http://rapidshare.com/files....t01.rar
http://rapidshare.com/files....t02.rar
http://rapidshare.com/files....t03.rar
http://rapidshare.com/files....t04.rar
http://rapidshare.com/files....t05.rar
http://rapidshare.com/files....t06.rar
http://rapidshare.com/files....t07.rar
http://rapidshare.com/files....t08.rar
http://rapidshare.com/files....t09.rar
http://rapidshare.com/files....t10.rar
http://rapidshare.com/files....t11.rar
http://rapidshare.com/files....t12.rar
http://rapidshare.com/files....t13.rar
http://rapidshare.com/files....t14.rar
http://rapidshare.com/files....t15.rar
http://rapidshare.com/files....t16.rar
http://rapidshare.com/files....t17.rar
http://rapidshare.com/files....t18.rar
http://rapidshare.com/files....t19.rar
http://rapidshare.com/files....t20.rar

[/center]





 
Forum » TORRENT MOVIES » 720p - 1080p HIndi Dubbed » Dinosaur.2000.720p.BRRip Hindi~3385VKSH
Page 1 of 11
Search:

Manage Attachments - BindassDesi - The Open Internet Forums
Close this window Manage Attachments
Upload File from your Computer


Upload File from a URL

image Attachment Key
Filetype Max Filesize Max Width Max Height
image torrent 976.6 KB - -