Your Ad Here
[ New messages · Members · Forum rules · Search · RSS ]
Page 1 of 11
Forum » TORRENT MOVIES » 720p - 1080p HIndi Dubbed » Kiss Of The Dragon.BRRip.720p.Dual Audio [Eng-Hindi]~Harshad (Kiss Of The Dragon.BRRip.720p.Dual Audio [Eng-Hindi]~Harshad)
Kiss Of The Dragon.BRRip.720p.Dual Audio [Eng-Hindi]~Harshad
HarshadDate: Monday, 2011-02-28, 10:23 AM | Message # 1
Private
Group: Checked
Messages: 14
Awards: 2
Reputation: 2
Status: Offline

Release Tittle - Kiss Of The Dragon
Relase Date -6 July 2001 (USA)
Release Length - 01:38:15
Storyline : Liu Jian, a police officer from China, comes to Paris to help the vice squad apprehend a
Chinese drug lord and his unknown French connection. The French connection is Richard,
the head of the vice squad, who intends to kill the drug lord then frame Jian. Jian
ducks a bullet and escapes with a tape of what really happened. By chance, Jian
turns to Jessica - a US farm girl who is one of Richard's hookers - for help.
She has her own problems, including the fact that Richard has her daughter
locked in an orphanage to keep Jessica on the streets and silent about his
activities. Can Jian protect Jessica, rescue her daughter, and give
Richard the kiss of the dragon?

Jet Li ... Liu Jian
Bridget Fonda ... Jessica Kamen
Tchéky Karyo ... Insp. Richard
Max Ryan ... Lupo
Ric Young ... Mister Big
Burt Kwouk ... Uncle Tai
Laurence Ashley ... Aja
Cyril Raffaelli ... Twin
Didier Azoulay ... Twin
John Forgeham ... Max
Paul Barrett ... Pilot
Kentaro ... Chen
Colin Prince ... Lupo's Assistant
Vincent Glo ... Pluto
Vincent Wong ... Minister Tang

Genre: Action,Crime,Drama,Thriller
Language: English & Hindi
Original Source: Kiss Of The Dragon 2001 BRRip 720p H264-3Li
Total Size: 1.48GB
Encoder: Harshad (HD Desi Rockers)

General
Complete name : Kiss Of The Dragon.BRRip.720p.Dual Audio [Eng-Hindi]~Harshad.mkv
Format : Matroska
File size : 1.49 GiB
Duration : 1h 34mn
Overall bit rate : 2 261 Kbps
Encoded date : UTC 2011-02-23 06:39:44
Writing application : mkvmerge v4.3.0 ('Escape from the Island') built on Sep 5 2010 10:30:51
Writing library : libebml v1.0.0 + libmatroska v1.0.0


Video
ID : 1
Format : AVC
Format/Info : Advanced Video Codec
Format profile : High@L4.1
Format settings, CABAC : Yes
Format settings, ReFrames : 8 frames
Muxing mode : Container profile=Unknown@4.1
Codec ID : V_MPEG4/ISO/AVC
Duration : 1h 34mn
Bit rate : 1 869 Kbps
Width : 1 280 pixels
Height : 544 pixels
Display aspect ratio : 2.35:1
Frame rate : 25.000 fps
Original frame rate : 23.976 fps
Color space : YUV
Chroma subsampling : 4:2:0
Bit depth : 8 bits
Scan type : Progressive
Bits/(Pixel*Frame) : 0.107
Stream size : 1.25 GiB (84%)
Writing library : x264 core 80 r1376M 3feaec2


Audio #1
ID : 2
Format : MPEG Audio
Format version : Version 1
Format profile : Layer 3
Mode : Joint stereo
Mode extension : MS Stereo
Codec ID : A_MPEG/L3
Codec ID/Hint : MP3
Duration : 1h 34mn
Bit rate mode : Constant
Bit rate : 128 Kbps
Channel(s) : 2 channels
Sampling rate : 44.1 KHz
Stream size : 86.3 MiB (6%)
Title : Eng_by_Harshad
Writing library : LAME3.90.3


Audio #2
ID : 3
Format : MPEG Audio
Format version : Version 1
Format profile : Layer 3
Mode : Joint stereo
Codec ID : A_MPEG/L3
Codec ID/Hint : MP3
Duration : 1h 34mn
Bit rate mode : Constant
Bit rate : 192 Kbps
Channel(s) : 2 channels
Sampling rate : 44.1 KHz
Stream size : 129 MiB (8%)
Title : Hindi_by_Harshad
Lan