The Book Of Eli. BRRip 720p. Dual Audio [Eng-Hindi]~Harshad - Forum
Your Ad Here
[ New messages · Members · Forum rules · Search · RSS ]
Page 1 of 11
Forum » TORRENT MOVIES » 720p - 1080p HIndi Dubbed » The Book Of Eli. BRRip 720p. Dual Audio [Eng-Hindi]~Harshad (The Book Of Eli. BRRip 720p. Dual Audio [Eng-Hindi]~Harshad)
The Book Of Eli. BRRip 720p. Dual Audio [Eng-Hindi]~Harshad
HarshadDate: Saturday, 2011-03-05, 10:04 PM | Message # 1
Private
Group: Checked
Messages: 14
Awards: 2
Reputation: 2
Status: Offline

Release Title: The Book Of Eli
Release Date: 15 Jan 2010
Release Length: 01:57:47
Storyline: In a violent post-apocalyptic society, the drifter Eli has been wandering to west across North America for the last thirty years reading a unique book that he brings with him. He survives hunting small animals and seeking goods in destroyed houses and vehicles to trade in villages for water and supplies. When he reaches the village ruled by the powerful mobster Carnegie, the man offers a job to Eli to join his gang. Carnegie presses his blind lover Claudia to send her daughter Solara to convince Eli spending the night with him. The girl sees the book of Eli, and when Carnegie beats up on Claudia, she reveals that Eli has the sought book. Carnegie sends his gang to take the book from Eli, but the man is up for protecting the book with his life.

Denzel Washington ... Eli
Gary Oldman ... Carnegie
Mila Kunis ... Solara
Ray Stevenson ... Redridge
Jennifer Beals ... Claudia
Evan Jones ... Martz
Joe Pingue ... Hoyt
Frances de la Tour ... Martha
Michael Gambon ... George
Tom Waits ... Engineer
Chris Browning ... Hijack Leader
Richard Cetrone ... Hijacker
Lateef Crowder ... Hijacker / Construction Thug
Keith Davis ... Hijacker
Don Tai ... Hijacker (as Don Theerathada)

Genre: Action | Adventure | Drama | Thriller | Western
Language: English & Hindi
IMDB Ratings: 7.0/10 22,724 votes
Awards: 3 nominations
Original Source: The.Book.of.Eli.2010.BRRIP.720P.H264-ZEKTORM
Total Size: 1.82 GB
Encoder: Harshad (HD Desi Rockers)

General
Complete name : The Book Of Eli. BRRip 720p. Dual Audio [Eng-Hindi]~Harshad.mkv
Format : Matroska
File size : 1.82 GiB
Duration : 1h 52mn
Overall bit rate : 2 313 Kbps
Encoded date : UTC 2011-03-05 16:01:03
Writing application : mkvmerge v4.3.0 ('Escape from the Island') built on Sep 5 2010 10:30:51
Writing library : libebml v1.0.0 + libmatroska v1.0.0


Video
ID : 1
Format : AVC
Format/Info : Advanced Video Codec
Format profile : High@L4.0
Format settings, CABAC : Yes
Format settings, ReFrames : 4 frames
Muxing mode : Container profile=Unknown@4.0
Codec ID : V_MPEG4/ISO/AVC
Duration : 1h 52mn
Bit rate : 1 849 Kbps
Width : 1 280 pixels
Height : 528 pixels
Display aspect ratio : 2.40:1
Frame rate : 25.000 fps
Original frame rate : 23.976 fps
Color space : YUV
Chroma subsampling : 4:2:0
Bit depth : 8 bits
Scan type : Progressive
Bits/(Pixel*Frame) : 0.109
Stream size : 1.48 GiB (81%)
Writing library : x264 core 93 r1542 5b86182


Audio #1
ID : 2
Format : MPEG Audio
Format version : Version 1
Format profile : Layer 3
Mode : Joint stereo
Codec ID : A_MPEG/L3
Codec ID/Hint : MP3
Duration : 1h 52mn
Bit rate mode : Constant
Bit rate : 128 Kbps
Channel(s) : 2 channels
Sampling rate : 48.0 KHz
Stream size : 103 MiB (6%)
Title : Eng_by_Harshad
Writing library : LAME3.90.3


Audio #2
ID : 3
Format : MPEG Audio
Format version : Version 1
Format profile : Layer 3
Codec ID : A_MPEG/L3
Codec ID/Hint : MP3
Duration : 1h 52mn
Bit rate mode : Constant
Bit rate : 256 Kbps
Channel(s) : 2 channels
Sampling rate : 48.0 KHz
Stream size : 207 MiB (11%)
Title : Hindi_by_Harshad
Language : Hindi






Download Torrent File Here

 
crazyboy00732Date: Sunday, 2011-03-06, 2:08 AM | Message # 2
Private
Group: Users
Messages: 3
Awards: 0
Reputation: 0
Status: Offline
thanxx harshad bro..... smile smile
 
RahulDate: Monday, 2011-03-07, 2:52 PM | Message # 3
Private
Group: Users
Messages: 1
Awards: 0
Reputation: 0
Status: Offline
I am not getting the download link of the torrent file... Someone plz help me...
 
Forum » TORRENT MOVIES » 720p - 1080p HIndi Dubbed » The Book Of Eli. BRRip 720p. Dual Audio [Eng-Hindi]~Harshad (The Book Of Eli. BRRip 720p. Dual Audio [Eng-Hindi]~Harshad)
Page 1 of 11
Search:

Manage Attachments - BindassDesi - The Open Internet Forums
Close this window Manage Attachments
Upload File from your Computer


Upload File from a URL

image Attachment Key
Filetype Max Filesize Max Width Max Height
image torrent 976.6 KB - -