Your Ad Here
[ New messages · Members · Forum rules · Search · RSS ]
Page 1 of 11
Forum » TORRENT MOVIES » 720p - 1080p HIndi Dubbed » Tron.Legacy.Dual.Audio.Hindi-Eng.6ch.Bluray.720p.D jVikas (Tron.Legacy.2010.Dual.Audio.Hindi-Eng.6ch.Bluray.7 20p.DjVika)
Tron.Legacy.Dual.Audio.Hindi-Eng.6ch.Bluray.720p.D jVikas
djvikasDate: Thursday, 2011-03-10, 10:01 AM | Message # 1
Lieutenant
Group: Administrators
Messages: 45
Awards: 2
Reputation: 1
Status: Offline

General
Complete name : Tron.Legacy.2010.Dual.Audio.Hindi-Eng.6ch.Bluray.720p.DjVikas.mkv
Format : Matroska
File size : 3.17 GiB
Duration : 2h 5mn
Overall bit rate : 3 630 Kbps
Movie name : Tron.Legacy.2010.Dual.Audio.Hindi-Eng.6ch.Bluray.720p.DjVikas
Writing application : AVI-Mux GUI 1.17.8, Aug 30 2008 12:36:58
Writing library : matroska muxer by Alexander Noe, build date Aug 30 2008

Video
ID : 1
Format : V_MS/VFW/FOURCC
Codec ID : V_MS/VFW/FOURCC
Duration : 2h 5mn
Bit rate : 2 790 Kbps
Width : 1 280 pixels
Height : 720 pixels
Display aspect ratio : 16:9
Frame rate : 23.976 fps
Bits/(Pixel*Frame) : 0.126
Stream size : 2.44 GiB (77%)
Language : English

Audio #1
ID : 2
Format : AC-3
Format/Info : Audio Coding 3
Mode extension : CM (complete main)
Codec ID : A_AC3
Duration : 2h 5mn
Bit rate mode : Constant
Bit rate : 384 Kbps
Channel(s) : 6 channels
Channel positions : Front: L C R, Side: L R, LFE
Sampling rate : 48.0 KHz
Bit depth : 16 bits
Stream size : 344 MiB (11%)
Title : English - DjVikas

Audio #2
ID : 3
Format : AC-3
Format/Info : Audio Coding 3
Mode extension : CM (complete main)
Codec ID : A_AC3
Duration : 2h 5mn
Bit rate mode : Constant
Bit rate : 384 Kbps
Channel(s) : 6 channels
Channel positions : Front: L C R, Side: L R, LFE
Sampling rate : 48.0 KHz
Bit depth : 16 bits
Stream size : 344 MiB (11%)
Title : Hindi - DjVikas

Text
ID : 4
Format : UTF-8
Codec ID : S_TEXT/UTF8
Codec ID/Info : UTF-8 Plain Text
Title : Eng Sub

==============================================================================











DOWNLOAD THIS TORRENT

 
Arshad_SANDate: Friday, 2011-03-11, 11:04 AM | Message # 2
Private
Group: Users
Messages: 1
Awards: 0
Reputation: 0
Status: Offline
bro it's stucked at 25%
 
DDDate: Sunday, 2011-03-13, 5:16 AM | Message # 3
Private
Group: Users
Messages: 3
Awards: 0
Reputation: 0
Status: Offline
mine stucked at 54.4%.....
 
Forum » TORRENT MOVIES » 720p - 1080p HIndi Dubbed » Tron.Legacy.Dual.Audio.Hindi-Eng.6ch.Bluray.720p.D jVikas (Tron.Legacy.2010.Dual.Audio.Hindi-Eng.6ch.Bluray.7 20p.DjVika)
Page 1 of 11
Search:

Manage Attachments - BindassDesi - The Open Internet Forums
Close this window Manage Attachments
Upload File from your Computer


Upload File from a URL

image Attachment Key
Filetype Max Filesize Max Width Max Height
image torrent 976.6 KB - -