Your Ad Here
[ New messages · Members · Forum rules · Search · RSS ]
Page 1 of 11
Forum » TORRENT MOVIES » 720p - 1080p HIndi Dubbed » Peter Pan. BRRip.720p.Dual Audio [Eng-Hindi]~Harshad (Peter Pan. BRRip.720p.Dual Audio [Eng-Hindi]~Harshad)
Peter Pan. BRRip.720p.Dual Audio [Eng-Hindi]~Harshad
HarshadDate: Friday, 2011-03-11, 9:40 AM | Message # 1
Private
Group: Checked
Messages: 14
Awards: 2
Reputation: 2
Status: Offline

Release Title: Peter Pan
Release Date: 25 December 2003
Release Length: 01:53:21
Storyline:
In stifling Edwardian London, Wendy Darling mesmerizes her brothers every night with bedtime tales
of swordplay, swashbuckling and the fearsome Captain Hook. But the children become the heroes
of an even greater story, when Peter Pan flies into their nursery one night and leads
them over moonlit rooftops through a galaxy of stars and to the lush jungles of Neverland.
Wendy and her brothers join Peter and the Lost Boys in an exhilarating life--free
of grown-up rules--while also facing the inevitable showdown
with Hook and his bloodthirsty pirates.

Jason Isaacs ... Mr. Darling / Captain Hook
Jeremy Sumpter ... Peter Pan
Rachel Hurd-Wood ... Wendy Darling
Lynn Redgrave ... Aunt Millicent
Richard Briers ... Smee
Olivia Williams ... Mrs. Darling
Geoffrey Palmer ... Sir Edward Quiller Couch
Harry Newell ... John Darling
Freddie Popplewell ... Michael Darling
Ludivine Sagnier ... Tink
Theodore Chester ... Slightly
Rupert Simonian ... Tootles
George MacKay ... Curly
Harry Eden ... Nibs
Patrick Gooch ... Twin

Genre: Adventure | Family | Fantasy | Romance
Language: English & Hindi
IMDB Ratings: 7.0/10 17,984 votes
Original Source: Peter Pan 2003 BRRip 720p H264-3Li
Total Size: 2.18 GB
Encoder: Harshad (HD Desi Rockers)

General
Complete name : Peter Pan. BRRip.720p.Dual Audio [Eng-Hindi]~Harshad.mkv
Format : Matroska
File size : 2.19 GiB
Duration : 1h 48mn
Overall bit rate : 2 879 Kbps
Encoded date : UTC 2011-03-10 10:43:51
Writing application : mkvmerge v4.3.0 ('Escape from the Island') built on Sep 5 2010 10:30:51
Writing library : libebml v1.0.0 + libmatroska v1.0.0


Video
ID : 1
Format : AVC
Format/Info : Advanced Video Codec
Format profile : High@L4.1
Format settings, CABAC : Yes
Format settings, ReFrames : 8 frames
Muxing mode : Container profile=Unknown@4.1
Codec ID : V_MPEG4/ISO/AVC
Duration : 1h 48mn
Bit rate : 2 405 Kbps
Width : 1 280 pixels
Height : 532 pixels
Display aspect ratio : 2.40:1
Frame rate : 25.000 fps
Original frame rate : 23.976 fps
Color space : YUV
Chroma subsampling : 4:2:0
Bit depth : 8 bits
Scan type : Progressive
Bits/(Pixel*Frame) : 0.141
Stream size : 1.86 GiB (85%)
Writing library : x264 core 80 r1376M 3feaec2


Audio #1
ID : 2
Format : MPEG Audio
Format version : Version 1
Format profile : Layer 3
Mode : Joint stereo
Mode extension : MS Stereo
Codec ID : A_MPEG/L3
Codec ID/Hint : MP3
Duration : 1h 48mn
Bit rate mode : Constant
Bit rate : 128 Kbps
Channel(s) : 2 channels
Sampling rate : 48.0 KHz
Stream size : 99.6 MiB (4%)
Title : Eng_by_Harshad
Writing library : LAME3.90.3


Audio #2
ID : 3
Format : MPEG Audio
Format version : Version 1
Format profile : Layer 3
Codec ID : A_MPEG/L3
Codec ID/Hint : MP3
Duration : 1h 48mn
Bit rate mode : Variable
Bit rate : 244 Kbps
Channel(s) : 2 channels
Sampling rate : 48.0 KHz
Stream size : 190 MiB (8%)
Title : Hindi_by_Harshad
Writing library : ÿÿÿÿÿÿÿÿÿ
Encoding settings : -m -lowpass 25.5
Language : Hindi






Download Torrent File Here

 
Forum » TORRENT MOVIES » 720p - 1080p HIndi Dubbed » Peter Pan. BRRip.720p.Dual Audio [Eng-Hindi]~Harshad (Peter Pan. BRRip.720p.Dual Audio [Eng-Hindi]~Harshad)
Page 1 of 11
Search:

Manage Attachments - BindassDesi - The Open Internet Forums
Close this window Manage Attachments
Upload File from your Computer


Upload File from a URL

image Attachment Key
Filetype Max Filesize Max Width Max Height
image torrent 976.6 KB - -