Your Ad Here
[ New messages · Members · Forum rules · Search · RSS ]
Page 1 of 11
Forum » TORRENT MOVIES » 720p - 1080p HIndi Dubbed » The Ring Two (2005) (The Ring Two (2005))
The Ring Two (2005)
MeeR_ChauhanDate: Friday, 2011-08-19, 5:57 PM | Message # 1
Private
Group: Users
Messages: 1
Awards: 0
Reputation: 0
Status: Offline
Release Title: The Ring Two (2005) m-720p HDTVRip [Dual-Audio][Eng-Hindi] ~ MeeR_Chauhan
Release Date: 18 March 2005 (USA)
Size: 2.53 GiB
Duration: 110mn
Genre: Drama | Horror | Mystery
Language: English + Hindi

Naomi Watts ... Rachel
Simon Baker ... Max Rourke
David Dorfman ... Aidan
Elizabeth Perkins ... Dr. Emma Temple
Gary Cole ... Martin Savide
Sissy Spacek ... Evelyn
Ryan Merriman ... Jake
Emily VanCamp ... Emily
Kelly Overton ... Betsy
James Lesure ... Doctor
Daveigh Chase ... Samara (archive footage)
Kelly Stables ... Evil Samara
Cooper Thornton ... Father of Emily
Marilyn McIntyre ... Mother of Emily
Jesse Burch ... Male Reporter

General
Complete name : The Ring Two (2005) m-720p HDTVRip [Dual-Audio][Eng-Hindi] ~ MeeR_Chauhan.mkv
Format : Matroska
File size : 2.53 GiB
Duration : 1h 48mn
Overall bit rate : 3 327 Kbps
Encoded date : UTC 2011-08-11 06:09:50
Writing application : mkvmerge v2.9.8 ('C'est le bon') built on Aug 13 2009 12:49:06
Writing library : libebml v0.7.7 + libmatroska v0.8.1

Video
ID : 1
Format : AVC
Format/Info : Advanced Video Codec
Format profile : High@L4.1
Format settings, CABAC : Yes
Format settings, ReFrames : 8 frames
Muxing mode : Container profile=Unknown@4.1
Codec ID : V_MPEG4/ISO/AVC
Duration : 1h 48mn
Bit rate : 2 620 Kbps
Nominal bit rate : 2 800 Kbps
Width : 1 280 pixels
Height : 720 pixels
Display aspect ratio : 16:9
Frame rate : 23.976 fps
Original frame rate : 25.000 fps
Resolution : 24 bits
Colorimetry : 4:2:0
Scan type : Progressive
Bits/(Pixel*Frame) : 0.119
Stream size : 1.99 GiB (79%)
Writing library : x264 core 114 r1913 5fd3dce
Encoding settings : cabac=1 / ref=8 / deblock=1:-3:-3 / analyse=0x3:0x133 / me=umh / subme=9 / psy=1 / psy_rd=1.00:0.15 / mixed_ref=1 / me_range=32 / chroma_me=1 / trellis=2 / 8x8dct=1 / cqm=0 / deadzone=21,11 / fast_pskip=1 / chroma_qp_offset=-3 / threads=3 / sliced_threads=0 / nr=0 / decimate=0 / interlaced=0 / constrained_intra=0 / bframes=3 / b_pyramid=0 / b_adapt=2 / b_bias=0 / direct=1 / weightb=1 / open_gop=0 / weightp=2 / keyint=250 / keyint_min=25 / scenecut=40 / intra_refresh=0 / rc_lookahead=40 / rc=2pass / mbtree=1 / bitrate=2800 / ratetol=1.0 / qcomp=0.60 / qpmin=10 / qpmax=51 / qpstep=4 / cplxblur=20.0 / qblur=0.5 / ip_ratio=1.40 / aq=1:1.00

Audio #1
ID : 2
Format : AC-3
Format/Info : Audio Coding 3
Codec ID : A_AC3
Duration : 1h 48mn
Bit rate mode : Constant
Bit rate : 320 Kbps
Channel(s) : 2 channels
Channel positions : L R
Sampling rate : 44.1 KHz
Stream size : 249 MiB (10%)
Title : English Track ~ MeeR_Chauhan
Language : English

Audio #2
ID : 3
Format : AC-3
Format/Info : Audio Coding 3
Codec ID : A_AC3
Duration : 1h 48mn
Bit rate mode : Constant
Bit rate : 320 Kbps
Channel(s) : 2 channels
Channel positions : L R
Sampling rate : 44.1 KHz
Stream size : 249 MiB (10%)
Title : Hindi Track ~ MeeR_Chauhan
Language : Hindi

Category: Movies > BD/HD/X264
Language: Hindi
Total Size: 2.53 GB

The Ring Two (2005) m-720p HDTVRip [Dual-Audio][Eng-Hindi] ~ MeeR_Chauhan.mkv
The Ring Two (2005) m-720p HDTVRip [Dual-Audio][Eng-Hindi] ~ MeeR_Chauhan.srt

Added (2011-08-19, 5:57 PM)
---------------------------------------------
Release Title: The Ring Two (2005) m-720p HDTVRip [Dual-Audio][Eng-Hindi] ~ MeeR_Chauhan
Release Date: 18 March 2005 (USA)
Size: 2.53 GiB
Duration: 110mn
Genre: Drama | Horror | Mystery
Language: English + Hindi

Naomi Watts ... Rachel
Simon Baker ... Max Rourke
David Dorfman ... Aidan
Elizabeth Perkins ... Dr. Emma Temple
Gary Cole ... Martin Savide
Sissy Spacek ... Evelyn
Ryan Merriman ... Jake
Emily VanCamp ... Emily
Kelly Overton ... Betsy
James Lesure ... Doctor
Daveigh Chase ... Samara (archive footage)
Kelly Stables ... Evil Samara
Cooper Thornton ... Father of Emily
Marilyn McIntyre ... Mother of Emily
Jesse Burch ... Male Reporter

General
Complete name : The Ring Two (2005) m-720p HDTVRip [Dual-Audio][Eng-Hindi] ~ MeeR_Chauhan.mkv
Format : Matroska
File size : 2.53 GiB
Duration : 1h 48mn
Overall bit rate : 3 327 Kbps
Encoded date : UTC 2011-08-11 06:09:50
Writing application : mkvmerge v2.9.8 ('C'est le bon') built on Aug 13 2009 12:49:06
Writing library : libebml v0.7.7 + libmatroska v0.8.1

Video
ID : 1
Format : AVC
Format/Info : Advanced Video Codec
Format profile : High@L4.1
Format settings, CABAC : Yes
Format settings, ReFrames : 8 frames
Muxing mode : Container profile=Unknown@4.1
Codec ID : V_MPEG4/ISO/AVC
Duration : 1h 48mn
Bit rate : 2 620 Kbps
Nominal bit rate : 2 800 Kbps
Width : 1 280 pixels
Height : 720 pixels
Display aspect ratio : 16:9
Frame rate : 23.976 fps
Original frame rate : 25.000 fps
Resolution : 24 bits
Colorimetry : 4:2:0
Scan type : Progressive
Bits/(Pixel*Frame) : 0.119
Stream size : 1.99 GiB (79%)
Writing library : x264 core 114 r1913 5fd3dce
Encoding settings : cabac=1 / ref=8 / deblock=1:-3:-3 / analyse=0x3:0x133 / me=umh / subme=9 / psy=1 / psy_rd=1.00:0.15 / mixed_ref=1 / me_range=32 / chroma_me=1 / trellis=2 / 8x8dct=1 / cqm=0 / deadzone=21,11 / fast_pskip=1 / chroma_qp_offset=-3 / threads=3 / sliced_threads=0 / nr=0 / decimate=0 / interlaced=0 / constrained_intra=0 / bframes=3 / b_pyramid=0 / b_adapt=2 / b_bias=0 / direct=1 / weightb=1 / open_gop=0 / weightp=2 / keyint=250 / keyint_min=25 / scenecut=40 / intra_refresh=0 / rc_lookahead=40 / rc=2pass / mbtree=1 / bitrate=2800 / ratetol=1.0 / qcomp=0.60 / qpmin=10 / qpmax=51 / qpstep=4 / cplxblur=20.0 / qblur=0.5 / ip_ratio=1.40 / aq=1:1.00

Audio #1
ID : 2
Format : AC-3
Format/Info : Audio Coding 3
Codec ID : A_AC3
Duration : 1h 48mn
Bit rate mode : Constant
Bit rate : 320 Kbps
Channel(s) : 2 channels
Channel positions : L R
Sampling rate : 44.1 KHz
Stream size : 249 MiB (10%)
Title : English Track ~ MeeR_Chauhan
Language : English

Audio #2
ID : 3
Format : AC-3
Format/Info : Audio Coding 3
Codec ID : A_AC3
Duration : 1h 48mn
Bit rate mode : Constant
Bit rate : 320 Kbps
Channel(s) : 2 channels
Channel positions : L R
Sampling rate : 44.1 KHz
Stream size : 249 MiB (10%)
Title : Hindi Track ~ MeeR_Chauhan
Language : Hindi

Category: Movies > BD/HD/X264
Language: Hindi
Total Size: 2.53 GB

The Ring Two (2005) m-720p HDTVRip [Dual-Audio][Eng-Hindi] ~ MeeR_Chauhan.mkv
The Ring Two (2005) m-720p HDTVRip [Dual-Audio][Eng-Hindi] ~ MeeR_Chauhan.srt

Torrent link Copy link n past web

http://www.ahashare.com/download.php?id=175482&uid=91845

MeeR_Chauhan


Message edited by MeeR_Chauhan - Friday, 2011-08-19, 6:06 PM
 
Forum » TORRENT MOVIES » 720p - 1080p HIndi Dubbed » The Ring Two (2005) (The Ring Two (2005))
Page 1 of 11
Search:

Manage Attachments - BindassDesi - The Open Internet Forums
Close this window Manage Attachments
Upload File from your Computer


Upload File from a URL

image Attachment Key
Filetype Max Filesize Max Width Max Height
image torrent 976.6 KB - -