Your Ad Here
[ New messages · Members · Forum rules · Search · RSS ]
Page 1 of 11
Forum » TORRENT MOVIES » 720p - 1080p HIndi Dubbed » The.Incredibles.Hindi.Bluray.720p.DjVikas
The.Incredibles.Hindi.Bluray.720p.DjVikas
djvikasDate: Monday, 2010-08-09, 1:15 PM | Message # 1
Lieutenant
Group: Administrators
Messages: 45
Awards: 2
Reputation: 1
Status: Offline
Quote
HD DESI ROCKERS RELEASES
===========================================================================

Movie name : The.Incredibles.Bluray720p.x264.Hindi.DjVikas

Format : Matroska
File size : 1.75 GiB
Duration : 1h 55mn
Overall bit rate : 2 180 Kbps
:

Video
ID : 1
Format : AVC
Format/Info : Advanced Video Codec
Format profile : High@L4.1
Format settings, CABAC : Yes
Codec ID : V_MPEG4/ISO/AVC
Duration : 1h 55mn
Bit rate : 1 880 Kbps
Nominal bit rate : 2 002 Kbps
Width : 1 280 pixels
Height : 528 pixels
Display aspect ratio : 2.35:1
Original display aspect ratio : 2.35:1
Frame rate : 23.976 fps
Original frame rate : 25.000 fps
Resolution : 8 bits
Stream size : 1.51 GiB (86%)

___________________________________________________________________________

Audio
ID : 2
Format : AC-3
Format/Info : Audio Coding 3
Codec ID : A_AC3
Duration : 1h 55mn
Bit rate mode : Constant
Bit rate : 256 Kbps
Channel(s) : 2 channels
Channel positions : L R
Sampling rate : 44.1 KHz
Stream size : 211 MiB (12%)
Title : Hindi - By - Dj Vikas

___________________________________________________________________________









DOWNLOAD THIS TORRENT

 
Forum » TORRENT MOVIES » 720p - 1080p HIndi Dubbed » The.Incredibles.Hindi.Bluray.720p.DjVikas
Page 1 of 11
Search:

Manage Attachments - BindassDesi - The Open Internet Forums
Close this window Manage Attachments
Upload File from your Computer


Upload File from a URL

image Attachment Key
Filetype Max Filesize Max Width Max Height
image torrent 976.6 KB - -