The.Wolfman.2010.Bluray..720p.Dual.Audio.Hindi_Eng .DjVikas - Forum
Your Ad Here
[ New messages · Members · Forum rules · Search · RSS ]
Page 1 of 11
Forum » TORRENT MOVIES » 720p - 1080p HIndi Dubbed » The.Wolfman.2010.Bluray..720p.Dual.Audio.Hindi_Eng .DjVikas
The.Wolfman.2010.Bluray..720p.Dual.Audio.Hindi_Eng .DjVikas
djvikasDate: Monday, 2010-08-09, 1:29 PM | Message # 1
Lieutenant
Group: Administrators
Messages: 45
Awards: 2
Reputation: 1
Status: Offline
Quote
==================================================================================

HD DESI ROCKERS RELEASES

======================================================================================
The.Wolfman.2010.Bluray..720p.Dual.Audio .Hindi_Eng.DjVikas.mkv
Format : Matroska
File size : 2.51 GiB
Duration : 1h 59mn
Overall bit rate : 3 014 Kbps
Movie name : The.Wolfman.2010.Bluray..720p.Dual.Audio.Hindi_Eng.DjVikas

Video
ID : 1
Format : AVC
Duration : 1h 59mn
Bit rate : 2 442 Kbps
Width : 1 280 pixels
Height : 694 pixels
Display aspect ratio : 16:9
Frame rate : 23.976 fps
Bits/(Pixel*Frame) : 0.115
Stream size : 2.03 GiB (81%)

Audio #1
ID : 2
Format : AC-3
Format/Info : Audio Coding 3
Mode extension : CM (complete main)
Codec ID : A_AC3
Duration : 1h 59mn
Bit rate mode : Constant
Bit rate : 384 Kbps
Channel(s) : 6 channels
Channel positions : Front: L C R, Side: L R, LFE
Sampling rate : 48.0 KHz
Bit depth : 16 bits
Stream size : 327 MiB (13%)

Audio #2
ID : 3
Format : MPEG Audio
Format version : Version 1
Format profile : Layer 3
Mode : Joint stereo
Codec ID : A_MPEG/L3
Codec ID/Hint : MP3
Duration : 1h 59mn
Bit rate mode : Constant
Bit rate : 128 Kbps
Channel(s) : 2 channels
Sampling rate : 48.0 KHz
Stream size : 109 MiB (4%)
Title : HINDI - DJ VIKAS












DOWNLOAD THIS TORRENT

 
Mayajaal0077Date: Wednesday, 2010-11-17, 7:08 PM | Message # 2
Private
Group: Users
Messages: 1
Awards: 0
Reputation: 0
Status: Offline
Great quality ...thanks dear.................
 
capriDate: Saturday, 2010-11-20, 4:06 PM | Message # 3
Private
Group: Users
Messages: 17
Awards: 0
Reputation: 0
Status: Offline
thanks for this movie very nice
 
RainDate: Thursday, 2011-09-22, 10:46 PM | Message # 4
Private
Group: Users
Messages: 1
Awards: 0
Reputation: 0
Status: Offline
guys thanks for upload the wolfman but seeded yaar and second pray to u please upload the season of witch in hindi with 720p and traformer 3 dark of the moon in hindi or dual audio please guy i m waiting this movies minimum 15 days no body giving quality or it's torrent fake i can download this movies in english lang. but no maja in movie with family so i request u again please guy upload ok thanx and notify me with my email lalupathak@ymail.com ok bye
 
Forum » TORRENT MOVIES » 720p - 1080p HIndi Dubbed » The.Wolfman.2010.Bluray..720p.Dual.Audio.Hindi_Eng .DjVikas
Page 1 of 11
Search:

Manage Attachments - BindassDesi - The Open Internet Forums
Close this window Manage Attachments
Upload File from your Computer


Upload File from a URL

image Attachment Key
Filetype Max Filesize Max Width Max Height
image torrent 976.6 KB - -