Independence Day 1996 BDRip Hindi~3385VKSH - Forum
Your Ad Here
[ New messages · Members · Forum rules · Search · RSS ]
Page 1 of 11
Forum » TORRENT MOVIES » 720p - 1080p HIndi Dubbed » Independence Day 1996 BDRip Hindi~3385VKSH
Independence Day 1996 BDRip Hindi~3385VKSH
3385VKSHDate: Tuesday, 2010-08-10, 10:34 AM | Message # 1
Sergeant
Group: Moderators
Messages: 21
Awards: 2
Reputation: 0
Status: Offline



General
Complete name :Independence Day 1996 BDRip Hindi~3385VKSH
Format : Matroska
File size : 2.08 GiB
Duration : 2h 18mn
Overall bit rate : 2 146 Kbps
Encoded date : UTC 2010-08-06 19:40:29
Writing application : mkvmerge v4.1.1 ('Bouncin' Back') built on Jul 3 2010 22:54:08
Writing library : libebml v1.0.0 + libmatroska v1.0.0


Video
ID : 1
Format : AVC
Format/Info : Advanced Video Codec
Format profile : Main@L4.1
Format settings, CABAC : Yes
Format settings, ReFrames : 4 frames
Format settings, GOP : M=1, N=3
Muxing mode : Container profile=Unknown@4.1
Codec ID : V_MPEG4/ISO/AVC
Duration : 2h 18mn
Bit rate : 1 751 Kbps
Width : 1 280 pixels
Height : 544 pixels
Display aspect ratio : 2.35:1
Frame rate : 25.000 fps
Original frame rate : 23.976 fps
Color space : YUV
Chroma subsampling : 4:2:0
Bit depth : 8 bits
Scan type : Progressive
Bits/(Pixel*Frame) : 0.101
Stream size : 1.73 GiB (83%)
Writing library : x264 core 68 r1183M f21daff


Audio
ID : 2
Format : MPEG Audio
Format version : Version 1
Format profile : Layer 3
Mode : Joint stereo
Codec ID : A_MPEG/L3
Codec ID/Hint : MP3
Duration : 2h 18mn
Bit rate mode : Constant
Bit rate : 320 Kbps
Channel(s) : 2 channels
Sampling rate : 48.0 KHz
Video delay : 16ms
Stream size : 318 MiB (15%)
Language : Hindi









Sample

Download Torrent





Message edited by 3385VKSH - Tuesday, 2010-08-10, 10:43 AM
 
Forum » TORRENT MOVIES » 720p - 1080p HIndi Dubbed » Independence Day 1996 BDRip Hindi~3385VKSH
Page 1 of 11
Search:

Manage Attachments - BindassDesi - The Open Internet Forums
Close this window Manage Attachments
Upload File from your Computer


Upload File from a URL

image Attachment Key
Filetype Max Filesize Max Width Max Height
image torrent 976.6 KB - -