2012 2009 BRRip H264 AAC Dual Audio [Hindi-Eng].-=rj8911=- - Forum
Your Ad Here
[ New messages · Members · Forum rules · Search · RSS ]
Page 1 of 11
Forum » TORRENT MOVIES » 720p - 1080p HIndi Dubbed » 2012 2009 BRRip H264 AAC Dual Audio [Hindi-Eng].-=rj8911=- (2012 2009 BRRip H264 AAC Dual Audio [Hindi-Eng].-=rj8911=-)
2012 2009 BRRip H264 AAC Dual Audio [Hindi-Eng].-=rj8911=-
boniinDate: Tuesday, 2010-08-24, 11:16 AM | Message # 1
Lieutenant colonel
Group: Administrators
Messages: 116
Awards: 5
Reputation: 10
Status: Offline




[COLOR="DimGray"][SIZE="3"]Release Title:[/SIZE][/COLOR][FONT="Arial Black"][SIZE="6"][COLOR="Black"]2012[/COLOR][/SIZE][/FONT][SIZE="4"][COLOR="Black"](2009) BRRip H264 5.1ch DUAL AUDIO [HINDI-ENG] by RiTeSh-=rj8911=-[/COLOR][/SIZE]

[SIZE="3"][COLOR="DimGray"]Storyline:[/COLOR][/SIZE]Dr. Adrian Helmsley, part of a worldwide geophysical team investigating the effect on the earth of radiation from unprecedented solar storms, learns that the earth's core is heating up. He warns U.S. President Thomas Wilson that the crust of the earth is becoming unstable and that without proper preparations for saving a fraction of the world's population, the entire race is doomed. Meanwhile, writer Jackson Curtis stumbles on the same information. While the world's leaders race to build "arks" to escape the impending cataclysm, Curtis struggles to find a way to save his family. Meanwhile, volcanic eruptions and earthquakes of unprecedented strength wreak havoc around the world


John Cusack ... Jackson Curtis
Amanda Peet ... Kate Curtis
Chiwetel Ejiofor ... Adrian Helmsley
Thandie Newton ... Laura Wilson
Oliver Platt ... Carl Anheuser
Thomas McCarthy ... Gordon Silberman (as Tom McCarthy)
Woody Harrelson ... Charlie Frost
Danny Glover ... President Thomas Wilson
Liam James ... Noah Curtis
Morgan Lily ... Lilly Curtis
Zlatko Buric ... Yuri Karpov
Beatrice Rosen ... Tamara
Alexandre Haussmann ... Alec
Philippe Haussmann ... Oleg
Johann Urb ... Sasha

Complete name : 2012 2009 BRRip H264 AAC Dual Audio [Hindi-Eng].mp4
Format : MPEG-4
Format profile : Base Media
Codec ID : isom
File size : 3.21 GiB
Duration : 2h 37mn
Overall bit rate : 2 910 Kbps
Encoded date : UTC 2010-04-30 13:56:54
Tagged date : UTC 2010-04-30 13:56:54
Writing application : Yamb 2.1.0.0 [[url]http://yamb.unite-video.com][/url]
Copyright : Ritesh


ID : 1
Format : AVC
Format/Info : Advanced Video Codec
Format profile : High@L4.1
Format settings, CABAC : Yes
Format settings, ReFrames : 8 frames
Codec ID : avc1
Codec ID/Info : Advanced Video Coding
Duration : 2h 37mn
Bit rate mode : Variable
Bit rate : 2 080 Kbps
Maximum bit rate : 17.7 Mbps
Width : 1 280 pixels
Height : 544 pixels
Display aspect ratio : 2.35:1
Frame rate mode : Constant
Frame rate : 23.976 fps
Resolution : 8 bits
Colorimetry : 4:2:0
Scan type : Progressive
Bits/(Pixel*Frame) : 0.125
Stream size : 2.29 GiB (71%)
Title : Ritesh
Writing library : x264 core 84 r1391M 3d0f110

ID : 2
Format : AC-3
Format/Info : Audio Coding 3
Format_Settings_ModeExtension : CM (complete main)
Codec ID : ac-3
Duration : 2h 37mn
Bit rate mode : Constant
Bit rate : 384 Kbps
Channel(s) : 6 channels
Channel positions : Front: L C R, Side: L R, LFE
Sampling rate : 48.0 KHz
Resolution : 16 bits
Stream size : 433 MiB (13%)
Title : Ritesh
Language : Hindi


ID : 3
Format : AAC
Format/Info : Advanced Audio Codec
Format version : Version 4
Format profile : LC
Format settings, SBR : No
Codec ID : 40
Duration : 2h 37mn
Bit rate mode : Variable
Bit rate : 442 Kbps
Maximum bit rate : 550 Kbps
Channel(s) : 6 channels
Channel positions : Front: L C R, Side: L R, LFE
Sampling rate : 48.0 KHz
Stream size : 499 MiB (15%)
Title : Ritesh
Language : English






Download Torrent File Here

 
atc87Date: Thursday, 2010-12-30, 8:06 AM | Message # 2
Private
Group: Users
Messages: 7
Awards: 0
Reputation: 0
Status: Offline
Thanks.. gr8 upload
 
praveenDate: Wednesday, 2011-01-12, 5:18 PM | Message # 3
Sergeant
Group: Users
Messages: 21
Awards: 0
Reputation: 0
Status: Offline
THANK YOU VERY MUCH VERY VERY VERY MUCH
 
Forum » TORRENT MOVIES » 720p - 1080p HIndi Dubbed » 2012 2009 BRRip H264 AAC Dual Audio [Hindi-Eng].-=rj8911=- (2012 2009 BRRip H264 AAC Dual Audio [Hindi-Eng].-=rj8911=-)
Page 1 of 11
Search:

Manage Attachments - BindassDesi - The Open Internet Forums
Close this window Manage Attachments
Upload File from your Computer


Upload File from a URL

image Attachment Key
Filetype Max Filesize Max Width Max Height
image torrent 976.6 KB - -