Your Ad Here
[ New messages · Members · Forum rules · Search · RSS ]
Page 1 of 11
Forum » TORRENT MOVIES » 720p - 1080p HIndi Dubbed » The Jungle Book 2 Dual Audio [Hindi-Eng] by RiTeSh-=rj8911=- (The Jungle Book 2 Dual Audio [Hindi-Eng] by RiTeSh-=rj8911=-)
The Jungle Book 2 Dual Audio [Hindi-Eng] by RiTeSh-=rj8911=-
boniinDate: Tuesday, 2010-08-24, 11:21 AM | Message # 1
Lieutenant colonel
Group: Administrators
Messages: 116
Awards: 5
Reputation: 10
Status: Offline

Quote
-_-_-_-_-_-_-_-_-_-_-_-_-_-_-_-_-_-_-_-_-_-_-_-_-_-_-_-_-_-_-_-_-_-_-_-_-_-_-_-_-

-=HD DESI ROCKERS RELEASES=-

-_-_-_-_-_-_-_-_-_-_-_-_-_-_-_-_-_-_-_-_-_-_-_-_-_-_-_-_-_-_-_-_-_-_-_-_-_-_-_-_-

General

Complete name : The Jungle Book 2 Dual Audio [Hindi-Eng] by RiTeSh-=rj8911=-.mkv
Format : Matroska
File size : 2.01 GiB
Duration : 1h 9mn
Overall bit rate : 4 171 Kbps
Movie name : The Jungle Book 2 Dual Audio [Hindi-Eng] by RiTeSh-=rj8911=-
Encoded date : UTC 2010-06-03 10:10:34
Writing application : mkvmerge v3.3.0 ('Language') built on Mar 24 2010 14:59:24
Writing library : libebml v0.8.0 + libmatroska v0.9.0

-_-_-_-_-_-_-_-_-_-_-_-_-_-_-_-_-_-_-_-_-_-_-_-_-_-_-_-_-_-_-_-_-_-_-_-_-_-_-_-


Video

ID : 1
Format : AVC
Format/Info : Advanced Video Codec
Format profile : High@L4.1
Format settings, CABAC : Yes
Format settings, ReFrames : 4 frames
Muxing mode : Container profile=Unknown@4.1
Codec ID : V_MPEG4/ISO/AVC
Duration : 1h 9mn
Bit rate : 3 512 Kbps
Nominal bit rate : 3 814 Kbps
Width : 1 280 pixels
Height : 720 pixels
Display aspect ratio : 16:9
Frame rate mode : Variable
Frame rate : 25.000 fps
Resolution : 8 bits
Colorimetry : 4:2:0
Scan type : Progressive
Bits/(Pixel*Frame) : 0.152
Stream size : 1.70 GiB (84%)
Title : The Jungle Book 2 Dual Audio [Hindi-Eng] by RiTeSh-=rj8911=-
Writing library : x264 core 67 r1139M 1024283
Language : English

-_-_-_-_-_-_-_-_-_-_-_-_-_-_-_-_-_-_-_-_-_-_-_-_-_-_-_-_-_-_-_-_-_-_-_-_-_-_-_-_-

Audio #1

ID : 2
Format : MPEG Audio
Format version : Version 1
Format profile : Layer 3
Mode : Joint stereo
Format_Settings_ModeExtension : MS Stereo
Codec ID : A_MPEG/L3
Codec ID/Hint : MP3
Duration : 1h 9mn
Bit rate mode : Constant
Bit rate : 192 Kbps
Channel(s) : 2 channels
Sampling rate : 48.0 KHz
Video delay : 14s 10ms
Stream size : 94.9 MiB (5%)
Title : The Jungle Book 2 Hindi by RiTeSh-=rj8911=-
Language : Hindi

-_-_-_-_-_-_-_-_-_-_-_-_-_-_-_-_-_-_-_-_-_-_-_-_-_-_-_-_-_-_-_-_-_-_-_-_-_-_-_-_-_

Audio #2

ID : 3
Format : AC-3
Format/Info : Audio Coding 3
Format_Settings_ModeExtension : CM (complete main)
Codec ID : A_AC3
Duration : 1h 9mn
Bit rate mode : Constant
Bit rate : 384 Kbps
Channel(s) : 6 channels
Channel positions : Front: L C R, Side: L R, LFE
Sampling rate : 48.0 KHz
Stream size : 190 MiB (9%)
Title : The Jungle Book 2 English by RiTeSh-=rj8911=-
Language : English

-_-_-_-_-_-_-_-_-_-_-_-_-_-_-_-_-_-_-_-_-_-_-_-_-_-_-_-_-_-_-_-_-_-_-_-_-_-_-_-_-

Subtitle:

Text
ID : 4
Format : UTF-8
Codec ID : S_TEXT/UTF8
Codec ID/Info : UTF-8 Plain Text
Title : The Jungle Book 2 Subs by RiTeSh-=rj8911=-
Language : English

-_-_-_-_-_-_-_-_-_-_-_-_-_-_-_-_-_-_-_-_-_-_-_-_-_-_-_-_-_-_-_-_-_-_-_-_-_-_-_-_-_










Download Torrent File Here
 
raghuDate: Tuesday, 2010-09-07, 12:39 PM | Message # 2
Private
Group: Checked
Messages: 11
Awards: 0
Reputation: 0
Status: Offline
thanks............
 
Forum » TORRENT MOVIES » 720p - 1080p HIndi Dubbed » The Jungle Book 2 Dual Audio [Hindi-Eng] by RiTeSh-=rj8911=- (The Jungle Book 2 Dual Audio [Hindi-Eng] by RiTeSh-=rj8911=-)
Page 1 of 11
Search:

Manage Attachments - BindassDesi - The Open Internet Forums
Close this window Manage Attachments
Upload File from your Computer


Upload File from a URL

image Attachment Key
Filetype Max Filesize Max Width Max Height
image torrent 976.6 KB - -