Your Ad Here
[ New messages · Members · Forum rules · Search · RSS ]
Page 1 of 11
Forum » TORRENT MOVIES » 720p - 1080p HIndi Dubbed » Green Zone 2010 720p BRRip[Dual-Audio][Eng-Hindi]~BONIIN (Green Zone 2010 720p BRRip[Dual-Audio][Eng-Hindi]~BONIIN)
Green Zone 2010 720p BRRip[Dual-Audio][Eng-Hindi]~BONIIN
boniinDate: Monday, 2010-09-06, 3:07 PM | Message # 1
Lieutenant colonel
Group: Administrators
Messages: 116
Awards: 5
Reputation: 10
Status: Offline



Release Title: Green Zone 2010 720p BRRip[Dual-Audio][Eng-Hindi]~BONIIN
Release Date: 12 March 2010 (USA)
Release Length: 1h 50mn

Tagline: Chief Warrant Officer Roy Miller is done following orders

Storyline:Following the American invasion of Iraq in 2003 Chief Warrant Officer Roy Miller
and his men are charged with finding the so-called weapons of mass destruction, whose existence
justified American involvement, according to the Pentagon and their man in Baghdad, Poundsgate.
Veteran CIA operative Marty tells Miller that there are no weapons, it is a deception to allow
the Americans to take over the country and install a puppet leader. Also suspicious of Poundsgate
is Wall Street Journal reporter Lawrie Dayne, who lets slip to Miller that Poundsgate told her he
had secret talks in Jordan with an important Iraqi, code-named Magellan, who told him about the weapons,
though it now seems likely Magellan's true information was to the contrary. So begins a hunt for the
truth. Who's playing whom?

Yigal Naor ... General Al Rawi (as Igal Naor)

Said Faraj ... Seyyed Hamza

Faycal Attougui ... Al Rawi Bodyguard (as Faical Attougui)

Aymen Hamdouchi ... Ayad Hamza

Matt Damon ... Miller

Nicoye Banks ... Perry

Jerry Della Salla ... Wilkins

Sean Huze ... Conway

Michael J. Dwyer ... MET D (as Michael Dwyer)

Edouard H.R. Gluck ... MET D

Brian Siefkes ... MET D

Adam Wendling ... MET D

Abdul Henderson ... MET D

Paul Karsko ... MET D - Sims

Robert Miller ... MET D


Title............................: Green Zone 2010 720P BRRip[Dual-Audio][Eng-Hindi]~BONIIN
Genre............................: Action | Drama | Thriller | War
Directer.........................: Paul Greengrass
Writer...........................: Brian Helgeland & Rajiv Chandrasekaran
IMDB.............................: http://www.imdb.com/title/tt0947810/
year.............................: 12 March 2010 (USA)
User Rating......................: 7.1/10 25,729 votes ยป
VIDEO Source.....................: Green Zone 2010 1080p Bluray x264-CBGB
File size........................: 1.93 GB
Run time.........................: 1h 50mn
Languages........................: English.Hindi
Subtittle........................: NONE
Ripper...........................: BONIIN[BOW]

Video:
ID : 1
Format : AVC
Format/Info : Advanced Video Codec
Format profile : High@L4.1
Format settings, CABAC : Yes
Format settings, ReFrames : 2 frames
Muxing mode : Container profile=Unknown@4.1
Codec ID : V_MPEG4/ISO/AVC
Duration : 1h 50mn
Bit rate : 1 864 Kbps
Nominal bit rate : 1 836 Kbps
Overall bit rate : 2 555 Kbps
Width : 1 280 pixels
Height : 528 pixels
Display aspect ratio : 2.40:1
Frame rate : 25.000 fps
Original frame rate : 23.976 fps
Resolution : 8 bits
Colorimetry : 4:2:0
Scan type : Progressive
Bits/(Pixel*Frame) : 0.110
Stream size : 1.43 GiB (73%)
Writing library : x264 core 80 r1376M 3feaec2
Encoding settings : cabac=1 / ref=1 / deblock=1:-1:-1 / analyse=0x3:0x3
Encoded date : UTC 2010-09-04 05:39:48
Writing application : mkvmerge v3.3.0 ('Language') built on Mar 24 2010 14:59:24
Writing library : libebml v0.8.0 + libmatroska v0.9.0


Audio #1
ID : 2
Format : AC-3
Format/Info : Audio Coding 3
Codec ID : A_AC3
Duration : 1h 50mn
Bit rate mode : Constant
Bit rate : 384 Kbps
Channel(s) : 6 channels
Channel positions : Front: L C R, Side: L R, LFE
Sampling rate : 48.0 KHz
Stream size : 302 MiB (15%)
Title : Ripper~BONIIN~
Language : English


Audio #2
ID : 3
Format : AC-3
Format/Info : Audio Coding 3
Codec ID : A_AC3
Duration : 1h 50mn
Bit rate mode : Constant
Bit rate : 256 Kbps
Channel(s) : 2 channels
Channel positions : Front: L R
Sampling rate : 48.0 KHz
Video delay : 800ms
Stream size : 202 MiB (10%)
Title : Ripper~BONIIN~
Language : Hindi















[b]Download Torrent File Here

HDDR upcoming releases




 
talha541Date: Sunday, 2010-09-12, 10:48 PM | Message # 2
Private
Group: Checked
Messages: 1
Awards: 0
Reputation: 0
Status: Offline
Awesome biggrin
 
BluRayDate: Friday, 2010-09-17, 1:10 PM | Message # 3
Private
Group: Checked
Messages: 3
Awards: 0
Reputation: 0
Status: Offline
Hi DJVIkas A big big Hats off to you man.... I m a dying fan of HD Quality... and in helpless position when i get no hollywood movies in hindi... And YOU gave me the exact solution...!!!

Thanks you for this effort....i hearly appriciate your effrts. why i'm thanking u so cos even i did'nt found original DVD's of these films in hindi...

 
sawant12Date: Friday, 2010-09-24, 8:21 PM | Message # 4
Private
Group: Checked
Messages: 9
Awards: 0
Reputation: 0
Status: Offline
THKS..KEEP IT UP
 
DDDate: Tuesday, 2010-11-09, 8:26 PM | Message # 5
Private
Group: Users
Messages: 3
Awards: 0
Reputation: 0
Status: Offline
Thanks Good quality and keep it up......
 
Forum » TORRENT MOVIES » 720p - 1080p HIndi Dubbed » Green Zone 2010 720p BRRip[Dual-Audio][Eng-Hindi]~BONIIN (Green Zone 2010 720p BRRip[Dual-Audio][Eng-Hindi]~BONIIN)
Page 1 of 11
Search:

Manage Attachments - BindassDesi - The Open Internet Forums
Close this window Manage Attachments
Upload File from your Computer


Upload File from a URL

image Attachment Key
Filetype Max Filesize Max Width Max Height
image torrent 976.6 KB - -