Lara Croft Cradle of Life 2003 BRrip Hindi~3385VKSH - Forum
Your Ad Here
[ New messages · Members · Forum rules · Search · RSS ]
Page 1 of 11
Forum » TORRENT MOVIES » 720p - 1080p HIndi Dubbed » Lara Croft Cradle of Life 2003 BRrip Hindi~3385VKSH
Lara Croft Cradle of Life 2003 BRrip Hindi~3385VKSH
3385VKSHDate: Wednesday, 2010-09-08, 6:01 PM | Message # 1
Sergeant
Group: Moderators
Messages: 21
Awards: 2
Reputation: 0
Status: Offline

Lara Croft is tasked by MI6 to find Pandora's Box, an object from ancient legends which supposedly contains one of the deadliest plagues on Earth, before evil Nobel Prize-winning scientist turned bioterrorist Jonathan Reiss can get his hands on it. The key to finding the box, which is hidden in the mysterious Cradle of Life, is a magical luminous orb that serves as a map. Lara finds the orb while exploring the submerged Luna Temple following an earthquake off the coast of Santorini, but it is stolen by crime lord Chen Lo, who in turn plans to sell the orb to Reiss. Lara recruits an old lover, Terry Sheridan, a former mercenary and Royal Marine who had spent his last couple of years in prison in Kazakhstan, to help her track down Chen Lo and the orb.Among the action sequences that take place during this time are the duo's entry into mainland China, a fight scene in suburban Shanghai, and a leap off the then-under-construction International Finance Centre skyscraper in Hong Kong, landing on a ship out in the Kowloon Bay. The orb later reveals the location of the Cradle of Life to be somewhere near Kilimanjaro in Africa. Lara sends this info back to Bryce back at Croft Manor. After the transmission, Reiss and his men had infiltrated the mansion and captured Bryce and Hillary. Meanwhile, Lara and Terry begin to fall in love with each other again but Lara starts to back
away from him.Lara meets up with Kosa, an African friend who serves as her translator as they obtain information from a local tribe about the Cradle of Life. As the expedition starts, many of the tribesmen are soon killed by Reiss' soldiers and ends with Lara being captured as Reiss' helicopter starts to land. Reiss threatens to kill Bryce, Hillary, and Kosa unless Lara leads him to the Cradle of Life. Soon they face perils such as a forest full of shadow monsters that kill immediately when they sense movement. When it comes to entering the Cradle of Life, there is a pool of highly corrosive black acid which holds the box. During this time, Terry arrives, frees Reiss' captives, and catches up to Lara.Following a climactic fistfight between Lara and Reiss, Reiss is knocked into the acid pool by Lara after he is distracted by Terry. When the couple tries to leave, Terry attempts to take the box as compensation for finding it, but she staunchly refuses to let him leave with it. Despite her love for him, this results in Lara being forced to fatally shoot him in self-defense just after Terry draws his own gun. Lara places Pandora's Box back into the pool, and realizes that some things were not meant to be found.



Angelina Jolie ... Lara Croft

Gerard Butler ... Terry Sheridan

Ciarán Hinds ... Jonathan Reiss

Chris Barrie ... Hillary (as Christopher Barrie)

Noah Taylor ... Bryce

Djimon Hounsou ... Kosa

Til Schweiger ... Sean

Simon Yam ... Chen Lo

Terence Yin ... Xien

Daniel Caltagirone ... Nicholas Petraki

Fabiano Martell ... Jimmy Petraki

Jonathan Coyne ... Gus Petraki

Robert Cavanah ... MI6 Agent Stevens

Ronan Vibert ... MI6 Agent Calloway

Lenny Juma ... Village Leader

General
Complete name : Lara Croft Cradle of Life 2003 BRrip Hindi~3385VKSH
Format : Matroska
File size : 1.28 GiB
Duration : 1h 41mn
Overall bit rate : 1 809 Kbps
Encoded date : UTC 2010-08-19 07:52:25
Writing application : mkvmerge v4.2.0 ('No Talking') built on Jul 28 2010 18:38:23
Writing library : libebml v1.0.0 + libmatroska v1.0.0


Video
ID : 1
Format : AVC
Format/Info : Advanced Video Codec
Format profile : High@L3.1
Format settings, CABAC : Yes
Format settings, ReFrames : 3 frames
Muxing mode : Container profile=Unknown@3.1
Codec ID : V_MPEG4/ISO/AVC
Duration : 1h 41mn
Bit rate : 1 517 Kbps
Width : 1 280 pixels
Height : 544 pixels
Display aspect ratio : 2.35:1
Frame rate : 25.000 fps
Original frame rate : 23.976 fps
Color space : YUV
Chroma subsampling : 4:2:0
Bit depth : 8 bits
Scan type : Progressive
Bits/(Pixel*Frame) : 0.087
Stream size : 1.07 GiB (84%)


Audio
ID : 2
Format : MPEG Audio
Format version : Version 1
Format profile : Layer 3
Mode : Joint stereo
Codec ID : A_MPEG/L3
Codec ID/Hint : MP3
Duration : 1h 41mn
Bit rate mode : Constant
Bit rate : 256 Kbps
Channel(s) : 2 channels
Sampling rate : 44.1 KHz
Video delay : 3s 900ms
Stream size : 185 MiB (14%)

Sample

http://hotfile.com/dl....kv.html



Torrent





Message edited by 3385VKSH - Wednesday, 2010-09-08, 6:14 PM
 
RICKYDate: Saturday, 2010-10-09, 10:18 AM | Message # 2
Private
Group: Users
Messages: 1
Awards: 0
Reputation: 0
Status: Offline
A BIG BIG THANKS...................U PPL ARE ROCKN................
 
Forum » TORRENT MOVIES » 720p - 1080p HIndi Dubbed » Lara Croft Cradle of Life 2003 BRrip Hindi~3385VKSH
Page 1 of 11
Search:

Manage Attachments - BindassDesi - The Open Internet Forums
Close this window Manage Attachments
Upload File from your Computer


Upload File from a URL

image Attachment Key
Filetype Max Filesize Max Width Max Height
image torrent 976.6 KB - -