James.Bond-World.Is.Not.Enough[BrRip]Dual[Eng-Hindi]720p-ahl - Forum
Your Ad Here
[ New messages · Members · Forum rules · Search · RSS ]
Page 1 of 11
Forum » TORRENT MOVIES » 720p - 1080p HIndi Dubbed » James.Bond-World.Is.Not.Enough[BrRip]Dual[Eng-Hindi]720p-ahl (James.Bond-World.Is.Not.Enough[BrRip]Dual[Eng-Hindi]-ahl07)
James.Bond-World.Is.Not.Enough[BrRip]Dual[Eng-Hindi]720p-ahl
boniinDate: Friday, 2010-10-22, 9:37 AM | Message # 1
Lieutenant colonel
Group: Administrators
Messages: 116
Awards: 5
Reputation: 10
Status: Offline

James Bond is back. An oil tycoon is murdered in MI6 and Bond is sent to protect his daughter. Renard, who has a bullet lodged in his brain from a

previous agent, is secretly planning the destruction of a pipeline. Bond gains a hand from a research scientist, Dr. Christmas Jones who witnesses the action

which happens when Bond meets up with Renard, but Bond becomes suspicious about Elektra King, especially when Bond's boss, M goes missing. Bond must work

quickly to prevent Renard from destroying Europe.


Pierce Brosnan ... James Bond
Sophie Marceau ... Elektra King
Robert Carlyle ... Renard
Denise Richards ... Dr. Christmas Jones
Robbie Coltrane ... Valentin Zukovsky
Judi Dench ... M
Desmond Llewelyn ... Q
John Cleese ... R
Maria Grazia Cucinotta ... Cigar Girl
Samantha Bond ... Miss Moneypenny
Michael Kitchen ... Bill Tanner
Colin Salmon ... Charles Robinson
Goldie ... Bullion
David Calder ... Sir Robert King
Serena Scott Thomas ... Dr. Molly Warmflash

General
Complete name : James.Bond-World.Is.Not.Enough[BrRip]Dual[Eng-Hindi]720p.mkv
Format : Matroska
File size : 1.64 GiB
Duration : 2h 2mn
Overall bit rate : 1 909 Kbps
Writing application : AVI-Mux GUI 1.17.8.3, Feb 16 201019:42:50
Writing library : matroska muxer by Alexander Noe, build date Feb 16 2010


[URL="http://www.imdb.com/title/tt0143145/"]http://www.imdb.com/title/tt0143145/[/URL]


Video
ID : 1
Format : AVC
Format/Info : Advanced Video Codec
Format profile : High@L4.1
Format settings, CABAC : Yes
Format settings, ReFrames : 3 frames
Muxing mode : Container profile=Unknown@4.1
Codec ID : V_MPEG4/ISO/AVC
Duration : 2h 2mn
Bit rate : 1 359 Kbps
Width : 1 280 pixels
Height : 540 pixels
Display aspect ratio : 2.35:1
Frame rate : 25.000 fps
Color space : YUV
Chroma subsampling : 4:2:0
Bit depth : 8 bits
Scan type : Progressive
Bits/(Pixel*Frame) : 0.079
Stream size : 1.17 GiB (71%)
Language : English
Color primaries : BT.709-5, BT.1361, IEC 61966-2-4, SMPTE RP177
Transfer characteristics : BT.709-5, BT.1361
Matrix coefficients : BT.709-5, BT.1361, IEC 61966-2-4 709, SMPTE RP177


Audio #1
ID : 2
Format : MPEG Audio
Format version : Version 1
Format profile : Layer 3
Mode : Joint stereo
Codec ID : A_MPEG/L3
Codec ID/Hint : MP3
Duration : 2h 2mn
Bit rate mode : Constant
Bit rate : 256 Kbps
Channel(s) : 2 channels
Sampling rate : 44.1 KHz
Video delay : 1s 450ms
Stream size : 225 MiB (13%)
Language : English

Audio #2
ID : 3
Format : MPEG Audio
Format version : Version 1
Format profile : Layer 3
Mode : Joint stereo
Codec ID : A_MPEG/L3
Codec ID/Hint : MP3
Duration : 2h 2mn
Bit rate mode : Constant
Bit rate : 256 Kbps
Channel(s) : 2 channels
Sampling rate : 44.1 KHz
Video delay : 1s 450ms
Stream size : 225 MiB (13%)
Language : Hindi

Available for users only
[COLOR="Lime"]Sample Included in the torrent[/COLOR]


[SIZE="5"][COLOR="Lime"]
[FONT="Comic Sans MS"]Seeding time 2AM-8AM
Please Click On Thanks Button or Add Reputations If You Like My Post[/FONT][/COLOR][/SIZE]

Download Torrent File Here

 
Forum » TORRENT MOVIES » 720p - 1080p HIndi Dubbed » James.Bond-World.Is.Not.Enough[BrRip]Dual[Eng-Hindi]720p-ahl (James.Bond-World.Is.Not.Enough[BrRip]Dual[Eng-Hindi]-ahl07)
Page 1 of 11
Search:

Manage Attachments - BindassDesi - The Open Internet Forums
Close this window Manage Attachments
Upload File from your Computer


Upload File from a URL

image Attachment Key
Filetype Max Filesize Max Width Max Height
image torrent 976.6 KB - -