Up 720p Brrip[Dual Audio] [Eng-Hindi]~BONIIN - Forum
Your Ad Here
[ New messages · Members · Forum rules · Search · RSS ]
Page 1 of 11
Forum » MOVIES » HD Hindi Dubbed Dual Audio Movies » Up 720p Brrip[Dual Audio] [Eng-Hindi]~BONIIN (very high quality thread)
Up 720p Brrip[Dual Audio] [Eng-Hindi]~BONIIN
boniinDate: Friday, 2010-06-11, 3:05 PM | Message # 1
Lieutenant colonel
Group: Administrators
Messages: 116
Awards: 5
Reputation: 10
Status: Offline






Release Title:
720p Brrip[Dual Audio][Eng-Hindi]~BONIIN
Release Date: 24 October 2009
Release Length: 1h 32mn
Storyline: A young Carl Fredrickson meets a young adventure spirited girl named Ellie.
They both dream of going to a Lost Land in South America. 70 years later, Ellie has died. Carl remembers the promise
he made to her. Then, when he inadvertently hits a construction worker, he is forced to go to a retirement home. But
before they can take him, he and his house fly away. However he has a stowaway aboard. An 8 year old boy named Russell,
whose trying to get an assisting the elderly badge. Together, they embark in an adventure, where they encounter talking
dogs, an evil villain and a rare bird named Kevin.

[imghttp://img90.imageshack.us/img90/4783/9k1gty1.png][/img]
Edward Asner ... Carl Fredricksen (voice) (as Ed Asner)
Christopher Plummer ... Charles Muntz (voice)
Jordan Nagai ... Russell (voice)
Bob Peterson ... Dug / Alpha (voice)
Delroy Lindo ... Beta (voice)
Jerome Ranft ... Gamma (voice)
John Ratzenberger ... Construction Foreman Tom (voice)
David Kaye ... Newsreel Announcer (voice)
Elie Docter ... Young Ellie (voice)
Jeremy Leary ... Young Carl (voice)
Mickie McGowan ... Police Officer Edith (voice)
Danny Mann ... Construction Worker Steve (voice)
Donald Fullilove ... Nurse George (voice)
Jess Harnell ... Nurse AJ (voice)
Josh Cooley ... Omega (voice)

Title............................: Up 720p Brrip[Dual Audio] [Eng-Hindi]~BONIIN
Genre............................: Animation | Adventure | Comedy | Family
Directer.........................: Pete Docter & Bob Peterson
Writer...........................: Pete Docter & Bob Peterson
IMDB.............................: http://www.imdb.com/title/tt1049413/
year.............................: 11 September 2009 (India)
User Rating......................: 8.4/10 96,223 votes »
Awards...........................: Won 2 Oscars. Another 40 wins & 29 nominations
VIDEO Source.....................: Up 1080p Bluray x264-CBGB
File size........................: 1.70 GiB
Run time.........................: 1h 32mn
Languages........................: English.Hindi
Subtittle........................: English
[img]Ripper...........................: BONIIN[BOW][/img]


Video
ID : 1
Format : Matroska,AVC
Format/Info : Advanced Video Codec
Format profile : Main@L4.1
Format settings, CABAC : Yes
Format settings, ReFrames : 5 frames
Muxing mode : Container profile=Unknown@4.1
Codec ID : V_MPEG4/ISO/AVC
Duration : 1h 32mn
Bit rate : 2 119 Kbps
Overall bit rate : 2 620 Kbps
Width : 1 280 pixels
Height : 690 pixels
Display aspect ratio : 1.855
Frame rate : 25.000 fps
Original frame rate : 23.976 fps
Resolution : 8 bits
Colorimetry : 4:2:0
Scan type : Progressive
Bits/(Pixel*Frame) : 0.096
Stream size : 1.37 GiB (81%)
Writing library : x264 core 78 r1301_DANGEROUS
Writing application : mkvmerge v3.3.0 ('Language') built on Mar 24 2010 14:59:24
Writing library : libebml v0.8.0 + libmatroska v0.9.0
Encoded date : UTC 2010-05-24 10:30:49


Audio #1
ID : 2
Format : MPEG Audio
Format version : Version 1
Format profile : Layer 3
Format_Settings_Mode : Joint stereo
Format_Settings_ModeExtension : MS Stereo
Codec ID : A_MPEG/L3
Codec ID/Hint : MP3
Duration : 1h 32mn
Bit rate mode : Constant
Bit rate : 128 Kbps
Channel(s) : 2 channels
Sampling rate : 48.0 KHz
Video delay : 15ms
Stream size : 84.8 MiB (5%)
Title : Ripper~BONIIN~128kb/s
Language : English


Audio #2
ID : 3
Format : MPEG Audio
Format version : Version 1
Format profile : Layer 3
Format_Settings_Mode : Joint stereo
Codec ID : A_MPEG/L3
Codec ID/Hint : MP3
Duration : 1h 32mn
Bit rate mode : Constant
Bit rate : 320 Kbps
Channel(s) : 2 channels
Sampling rate : 48.0 KHz
Video delay : 1s 500ms
Stream size : 212 MiB (12%)
Title : Ripper~BONIIN~320kb/s
Language : Hindi










Attachments: New_Text_Docume.txt(3Kb)
 
i2009akDate: Friday, 2010-06-11, 4:27 PM | Message # 2
Private
Group: Moderators
Messages: 7
Awards: 0
Reputation: 0
Status: Offline

THANXX.

BETTER U SHOULD ALSO ADD U R TORRENT FILE HERE.

 
raghuDate: Wednesday, 2010-07-07, 9:54 PM | Message # 3
Private
Group: Checked
Messages: 11
Awards: 0
Reputation: 0
Status: Offline
screeshots

somebody plez keep a new rule that 'complusary screenshots' plezzzzzzzzz

 
PrashantDate: Thursday, 2011-02-10, 8:03 AM | Message # 4
Private
Group: Users
Messages: 9
Awards: 0
Reputation: 0
Status: Offline
where is torrent for this movie .... plz tell me ???????????
 
ArshadDate: Sunday, 2011-03-20, 10:31 AM | Message # 5
Private
Group: Users
Messages: 3
Awards: 0
Reputation: 0
Status: Offline
Please torrent send
 
kush700Date: Friday, 2011-05-13, 8:32 AM | Message # 6
Private
Group: Users
Messages: 2
Awards: 0
Reputation: 0
Status: Offline
biggrin thanks buddy all think is that i love yr community
 
ruffDate: Sunday, 2011-12-25, 3:52 PM | Message # 7
Private
Group: Users
Messages: 1
Awards: 0
Reputation: 0
Status: Offline
how to download this torrent ........ can anybudyy---
 
Forum » MOVIES » HD Hindi Dubbed Dual Audio Movies » Up 720p Brrip[Dual Audio] [Eng-Hindi]~BONIIN (very high quality thread)
Page 1 of 11
Search:

Manage Attachments - BindassDesi - The Open Internet Forums
Close this window Manage Attachments
Upload File from your Computer


Upload File from a URL

image Attachment Key
Filetype Max Filesize Max Width Max Height
image torrent 976.6 KB - -