Your Ad Here
[ New messages · Members · Forum rules · Search · RSS ]
Page 1 of 11
Forum » TORRENT MOVIES » 720p - 1080p HIndi Dubbed » Public Enemies Brrip 720p 6ch [Dual Audio][Hindi-Eng] ~i2009
Public Enemies Brrip 720p 6ch [Dual Audio][Hindi-Eng] ~i2009
i2009akDate: Saturday, 2011-02-19, 8:39 AM | Message # 1
Private
Group: Moderators
Messages: 7
Awards: 0
Reputation: 0
Status: Offline

2009

BRRip

720p

Hindi English

Dual Audio

-=![i2009ak]!=-

http://www.megaupload.com/?d=J4ASXXS3

PLOT

Storyline

This is the story of the last few years of the notorious bank robber John Dillinger. He loved what he did and could imagine little else that would make him happier. Living openly in 1930s Chicago, he had the run of the city with little fear of reprisals from the authorities. It's there that he meets Billie Frechette with whom he falls deeply in love. In parallel we meet Melvin Purvis, the FBI agent who would eventually track Dillinger down. The FBI was is in its early days and Director J. Edgar Hoover was keen to promote the clean cut image that so dominated the organization through his lifetime. Purvis realizes that if he is going to get Dillinger, he will have to use street tactics and imports appropriate men with police training. Dillinger is eventually betrayed by an acquaintance who tells the authorities just where to find him on a given night.

Genres:

Biography | Crime | Drama

Release Date:

7 August 2009 (India)

MOVIE INFO::---

General
Complete name : Public Enemies Brrip 720p 6ch [Dual Audio][Hindi-Eng] ~i2009ak .mp4
Format : MPEG-4
Format profile : Base Media
Codec ID : isom
File size : 2.39 GiB
Duration : 2h 20mn
Overall bit rate : 2 444 Kbps
Encoded date : UTC 2011-02-17 17:20:06
Tagged date : UTC 2011-02-17 17:20:06
Writing application : Yamb 2.1.0.0 [http://yamb.unite-video.com]
Ripper...........................:-=![i2009ak]!=-

Video
ID : 1
Format : AVC
Format/Info : Advanced Video Codec
Format profile : Main@L4.1
Format settings, CABAC : Yes
Format settings, ReFrames : 4 frames
Codec ID : avc1
Codec ID/Info : Advanced Video Coding
Duration : 2h 20mn
Bit rate mode : Variable
Bit rate : 1 800 Kbps
Maximum bit rate : 19.8 Mbps
Width : 1 280 pixels
Height : 528 pixels
Display aspect ratio : 2.40:1
Frame rate mode : Constant
Frame rate : 23.976 fps
Resolution : 24 bits
Colorimetry : 4:2:0
Scan type : Progressive
Bits/(Pixel*Frame) : 0.111
Stream size : 1.76 GiB (74%)
Writing library : x264 core 77 r1292M e381f6d
Encoding settings : cabac=1 / ref=4 / deblock=1:0:0 / analyse=0x1:0x111 / me=umh / subme=9 / psy=1 / psy_rd=1.0:0.0 / mixed_ref=1 / me_range=16 / chroma_me=1 / trellis=2 / 8x8dct=0 / cqm=0 / deadzone=21,11 / chroma_qp_offset=-2 / threads=3 / slices=3 / nr=0 / decimate=1 / mbaff=0 / constrained_intra=0 / bframes=3 / b_pyramid=0 / b_adapt=2 / b_bias=0 / direct=1 / wpredb=1 / keyint=250 / keyint_min=25 / scenecut=40 / rc_lookahead=80 / rc=2pass / mbtree=1 / bitrate=1800 / ratetol=1.0 / qcomp=0.60 / qpmin=10 / qpmax=51 / qpstep=4 / cplxblur=20.0 / qblur=0.5 / ip_ratio=1.40 / aq=1:1.00
Encoded date : UTC 2011-02-17 17:20:06
Tagged date : UTC 2011-02-17 17:28:24

Audio #1
ID : 2
Format : AC-3
Format/Info : Audio Coding 3
Codec ID : ac-3
Duration : 2h 20mn
Bit rate mode : Constant
Bit rate : 320 Kbps
Channel(s) : 6 channels
Channel positions : Front: L C R, Surround: L R, LFE
Sampling rate : 48.0 KHz
Resolution : 16 bits
Stream size : 321 MiB (13%)
Title : Hindi Audio Dobly Digital 6ch AC-3 ~ i2009ak
Language : Hindi
Encoded date : UTC 2011-02-17 17:25:35
Tagged date : UTC 2011-02-17 17:28:24

Audio #2
ID : 3
Format : AAC
Format/Info : Advanced Audio Codec
Format version : Version 4
Format profile : LC
Format settings, SBR : Yes
Format settings, PS : No
Codec ID : 40
Duration : 2h 20mn
Bit rate mode : Variable
Bit rate : 321 Kbps
Maximum bit rate : 411 Kbps
Channel(s) : 6 channels
Channel positions : Front: L C R, Rear: L R, LFE
Sampling rate : 48.0 KHz
Resolution : 16 bits
Stream size : 321 MiB (13%)
Title : English Audio ~ i2009ak
Language : English
Encoded date : UTC 2011-02-17 17:27:06
Tagged date : UTC 2011-02-17 17:28:24

Screenshots:













Note All User :
NOTE FOR USERS:--

1.No compromise with video and audio quality.So enjoy this movie with higher audio and video bitrate.

2.Use proper codecs and play with vlc media player only.

3.Plz seed after download.

We hope you enjoy this release.
Please seed, and we thank you for your support.

ADD REPPS IF U LIKE MY WORK

YOUR REPLY APPRECIATED WITH OVER WORK SO KINDLYPLZDO

http://torcache.com/torrent....torrent



Message edited by i2009ak - Saturday, 2011-02-19, 8:45 AM
 
i2009akDate: Saturday, 2011-02-19, 8:48 AM | Message # 2
Private
Group: Moderators
Messages: 7
Awards: 0
Reputation: 0
Status: Offline
Guys plz comment upon Quality.......[color=blue]
 
RiyazDate: Saturday, 2011-02-19, 3:32 PM | Message # 3
Sergeant
Group: Checked
Messages: 20
Awards: 1
Reputation: 0
Status: Offline
beautiful....rip
 
saqibbugtiDate: Saturday, 2011-02-19, 5:36 PM | Message # 4
Private
Group: Users
Messages: 4
Awards: 0
Reputation: 0
Status: Offline
Thanks i2009ak very very best And beautiful RIP
 
boniinDate: Monday, 2011-02-21, 10:30 AM | Message # 5
Lieutenant colonel
Group: Administrators
Messages: 116
Awards: 5
Reputation: 10
Status: Offline
nice rip bro
 
Forum » TORRENT MOVIES » 720p - 1080p HIndi Dubbed » Public Enemies Brrip 720p 6ch [Dual Audio][Hindi-Eng] ~i2009
Page 1 of 11
Search:

Manage Attachments - BindassDesi - The Open Internet Forums
Close this window Manage Attachments
Upload File from your Computer


Upload File from a URL

image Attachment Key
Filetype Max Filesize Max Width Max Height
image torrent 976.6 KB - -