Wrong Turn At Tahoe.2010.DvdRip.~VKS3385 - Forum
Your Ad Here
[ New messages · Members · Forum rules · Search · RSS ]
Page 1 of 11
Forum » TORRENT MOVIES » DVDrip HINDI DUBBED » Wrong Turn At Tahoe.2010.DvdRip.~VKS3385
Wrong Turn At Tahoe.2010.DvdRip.~VKS3385
3385VKSHDate: Wednesday, 2010-09-08, 6:26 PM | Message # 1
Sergeant
Group: Moderators
Messages: 21
Awards: 2
Reputation: 0
Status: Offline


General
Complete name : Wrong Turn At Tahoe.2010.DvdRip~VKS3385
Format : Matroska
File size : 696 MiB
Duration : 1h 26mn
Overall bit rate : 1 123 Kbps
Encoded date : UTC 2010-07-22 06:07:42
Writing application : mkvmerge v4.1.1 ('Bouncin' Back') built on Jul 3 2010 22:54:08
Writing library : libebml v1.0.0 libmatroska v1.0.0


ID : 1
Format : MPEG-4 Visual
Format profile : Advanced Simple@L5
Format settings, BVOP : Yes
Format settings, QPel : No
Format settings, GMC : No warppoints
Format settings, Matrix : Default (H.263)
Codec ID : XVID
Codec ID/Hint : XviD
Duration : 1h 26mn
Bit rate : 973 Kbps
Width : 720 pixels
Height : 304 pixels
Display aspect ratio : 2.35:1
Frame rate : 25.000 fps
Original frame rate : 23.976 fps
Color space : YUV
Chroma subsampling : 4:2:0
Bit depth : 8 bits
Scan type : Progressive
Bits/(Pixel*Frame) : 0.178
Stream size : 603 MiB (87%)
Writing library : XviD 1.2.1 (UTC 2008-12-04)


Audio
ID : 2
Format : MPEG Audio
Format version : Version 1
Format profile : Layer 3
Mode : Joint stereo
Mode extension : MS Stereo
Codec ID : A_MPEG/L3
Codec ID/Hint : MP3
Duration : 1h 26mn
Bit rate mode : Constant
Bit rate : 128 Kbps
Channel(s) : 2 channels
Sampling rate : 44.1 KHz
Video delay : 6s 200ms
Stream size : 79.3 MiB (11%)









Torrent



 
Forum » TORRENT MOVIES » DVDrip HINDI DUBBED » Wrong Turn At Tahoe.2010.DvdRip.~VKS3385
Page 1 of 11
Search:

Manage Attachments - BindassDesi - The Open Internet Forums
Close this window Manage Attachments
Upload File from your Computer


Upload File from a URL

image Attachment Key
Filetype Max Filesize Max Width Max Height
image torrent 976.6 KB - -