BEE MOVIE BLURAY [2007] 720p - Hindi - BLURAY - DJVIKAS - Forum
Your Ad Here
[ New messages · Members · Forum rules · Search · RSS ]
Page 1 of 11
Forum » MOVIES » HD Hindi Dubbed Dual Audio Movies » BEE MOVIE BLURAY [2007] 720p - Hindi - BLURAY - DJVIKAS
BEE MOVIE BLURAY [2007] 720p - Hindi - BLURAY - DJVIKAS
djvikasDate: Thursday, 2010-09-02, 7:30 PM | Message # 1
Lieutenant
Group: Administrators
Messages: 45
Awards: 2
Reputation: 1
Status: Offline

Quote
===========================================================================

HD DESI ROCKERS RELEASES
===========================================================================

General
Complete name : Bee.Movie.Bluray.720p.Hindi.Dj.Vikas.mkv

Format : Matroska
File size : 2.05 GiB
Duration : 1h 26mn
Overall bit rate : 3 381 Kbps

Video
ID : 1
Format : AVC
Format/Info : Advanced Video Codec
Codec ID : V_MPEG4/ISO/AVC
Duration : 1h 23mn
Bit rate : 2 865 Kbps
Width : 1 280 pixels
Height : 720 pixels
Display aspect ratio : 16:9
Frame rate mode : Constant
Frame rate : 25 fps
Stream size : 1.67 GiB (81%)

Audio
ID : 2
Format : AC-3
Format/Info : Audio Coding 3
Codec ID : A_AC3
Duration : 1h 26mn
Bit rate mode : Constant
Bit rate : 448 Kbps
Channel(s) : 2 channels
Channel positions : L R
Sampling rate : 48.0 KHz
Stream size : 279 MiB (13%)
Title : Hindi - By - DJ Vikas


Code
http://www.megaupload.com/?d=98F3YLY1
http://www.megaupload.com/?d=YH9CZJK6
http://www.megaupload.com/?d=QAI0M8VH
http://www.megaupload.com/?d=X480BR2G
http://www.megaupload.com/?d=8JH1B213
http://www.megaupload.com/?d=HLO6W09M
http://www.megaupload.com/?d=IVP9IV8F
http://www.megaupload.com/?d=Z3Z5IOV8
http://www.megaupload.com/?d=VHY51GO4
http://www.megaupload.com/?d=H6BT55SY
http://www.megaupload.com/?d=TNVU8T95
http://www.megaupload.com/?d=C3R0KPSP
http://www.megaupload.com/?d=M1R7R0TU
http://www.megaupload.com/?d=5QSBWLD2
http://www.megaupload.com/?d=QRZSGBZ3
http://www.megaupload.com/?d=OJJECHZS
http://www.megaupload.com/?d=C5AHY9W0
http://www.megaupload.com/?d=IBWLNH18
http://www.megaupload.com/?d=LHEZEK1S
http://www.megaupload.com/?d=9OYF7XJP
http://www.megaupload.com/?d=SEGLXSKB
http://www.megaupload.com/?d=2FLUG0KK
http://www.megaupload.com/?d=8U797R9T
 
f4fahiDate: Tuesday, 2010-11-16, 10:46 AM | Message # 2
Private
Group: Users
Messages: 1
Awards: 0
Reputation: 0
Status: Offline
c
 
nepsDate: Monday, 2011-01-17, 3:12 PM | Message # 3
Private
Group: Users
Messages: 5
Awards: 0
Reputation: 0
Status: Offline
plzzz upload " BEHIND ENEMY LINES 2001 BRRIP HINDI "

ITS A NICE MOVIE , BUT NOT AVAILABLE IN NET IN GOOD PRINT .
SO PLZZ UPLOAD IT IF U CAN .
THANX.

 
ArshadDate: Sunday, 2011-03-20, 10:29 AM | Message # 4
Private
Group: Users
Messages: 3
Awards: 0
Reputation: 0
Status: Offline
Dear Sir,

Please give me torrent of this movie

 
Forum » MOVIES » HD Hindi Dubbed Dual Audio Movies » BEE MOVIE BLURAY [2007] 720p - Hindi - BLURAY - DJVIKAS
Page 1 of 11
Search:

Manage Attachments - BindassDesi - The Open Internet Forums
Close this window Manage Attachments
Upload File from your Computer


Upload File from a URL

image Attachment Key
Filetype Max Filesize Max Width Max Height
image torrent 976.6 KB - -